<?xml version="1.0" standalone="no"?> <!DOCTYPE svg PUBLIC "-//W3C//DTD SVG 1.0//EN" "http://www.w3.org/TR/2001/REC-SVG-20010904/DTD/svg10.dtd" > <svg xmlns="http://www.w3.org/2000/svg" width="100%" height="100%">
<defs >
<font horiz-adv-x="610" ><font-face
    font-family="Poppins SemiBold"
    units-per-em="1000"
    panose-1="2 0 0 0 0 0 0 0 0 0"
    ascent="1115"
    descent="-525"
    alphabetic="0" />
<missing-glyph horiz-adv-x="754" d="M239 633V68H516V633H239ZM166 0V701H588V0H166Z" />
<glyph unicode=" " glyph-name="null" horiz-adv-x="300" />
<glyph unicode="!" glyph-name="null" horiz-adv-x="419" d="M301 46T278 23T221 0T164 23T140 80T163 137T220 160T277 137T301 80ZM158 235L142 751H292L276 235H158Z" />
<glyph unicode="&quot;" glyph-name="null" horiz-adv-x="364" d="M219 586L206 799H327L314 586H219ZM50 586L37 799H158L145 586H50Z" />
<glyph unicode="#" glyph-name="null" horiz-adv-x="898" d="M838 454H685L650 290H776V165H623L588 0H456L491 165H308L273 0H141L176 165H23V290H203L238 454H85V579H265L299 740H431L397 579H580L614 740H746L712 579H838V454ZM518 290L553 454H370L335 290H518Z" />
<glyph unicode="$" glyph-name="null" horiz-adv-x="647" d="M564 203Q564 123 504 63T343 -6V-87H285V-6Q183 1 122 54T60 197H210Q216 121 285 108V299Q183 326 147 346Q60 394 60 499Q60 586 123 642T285 707V788H343V707Q440 701 497 652T560 508H413Q410
538 392 560T343 591V402Q445 376 483 354Q564 306 564 203ZM206 508Q206 446 285 419V593Q206 581 206 508ZM419 195Q419 253 343 282V108Q379 115 399 138T419 195Z" />
<glyph unicode="%" glyph-name="null" horiz-adv-x="765" d="M626 227T570 227T514 151T570 74T626 150ZM501 -10T457 32T412 150T456 268T570 311T684 269T729 151T685 33T571 -10ZM118 0L510 700H647L254 0H118ZM251 626T195 626T138 550T194 473T251 549ZM36
475T36 550T80 667T194 710T308 668T353 550T309 432T195 389T81 432Z" />
<glyph unicode="&amp;" glyph-name="null" horiz-adv-x="688" d="M251 -7Q160 -7 97 55T33 206T83 353T205 422Q146 508 146 572T198 688T341 740T485 692T538 579Q538 546 526 522H391Q400 538 400 562T384 604T341 621T299 604T283 560T313 492L682 0H518L441
106Q415 56 364 25T251 -7ZM211 108T252 108T322 138T352 212T323 284T252 314T182 285T153 212T182 139Z" />
<glyph unicode="&apos;" glyph-name="null" horiz-adv-x="195" d="M50 586L37 799H158L145 586H50Z" />
<glyph unicode="(" glyph-name="null" horiz-adv-x="511" d="M247 -95T173 60T99 402T173 744T368 990H510V977Q372 866 304 718T235 402T303 87T510 -173V-186H368Q247 -95 173 60Z" />
<glyph unicode=")" glyph-name="null" horiz-adv-x="512" d="M266 899T339 744T413 403T340 61T144 -186H3V-173Q141 -61 209 86T277 402T209 718T3 977V990H144Q266 899 339 744Z" />
<glyph unicode="*" glyph-name="null" horiz-adv-x="518" d="M313 738L289 598L399 687L449 596L318 549L449 502L396 409L289 498L312 360H208L230 498L123 408L68 503L198 550L69 595L120 687L231 598L208 738H313Z" />
<glyph unicode="+" glyph-name="null" horiz-adv-x="685" d="M597 419V292H409V101H275V292H87V419H275V611H409V419H597Z" />
<glyph unicode="," glyph-name="null" horiz-adv-x="220" d="M33 91H156Q193 -12 172 -87Q161 -124 130 -146T48 -168V-112Q74 -112 86 -100T98 -58V-39H33V91Z" />
<glyph unicode="-" glyph-name="null" horiz-adv-x="583" d="M79 298V415H504V298H79Z" />
<glyph unicode="." glyph-name="null" horiz-adv-x="245" d="M203 46T180 23T123 0T66 23T43 80T66 137T122 160T179 137T203 80Z" />
<glyph unicode="/" glyph-name="null" horiz-adv-x="486" d="M37 -181L307 947H444L174 -181H37Z" />
<glyph unicode="0" glyph-name="null" horiz-adv-x="646" d="M53 727T322 727T592 365T323 2T53 364ZM357 597T323 597T264 584T226 551T204 499T194 436T191 365T193 294T204 232T225 179T264 145T323 132T382 145T420 178T442 231T452 294T455 365T453 436T442
498T421 551T382 584Z" />
<glyph unicode="1" glyph-name="null" horiz-adv-x="383" d="M143 0V581H37V710H287V0H143Z" />
<glyph unicode="2" glyph-name="null" horiz-adv-x="574" d="M46 10V113Q72 136 126 182T207 253T273 316T332 383Q381 453 381 507Q381 613 283 613Q235 613 208 581T180 493H44Q45 610 112 671T289 732T460 670T522 514Q522 444 486 384Q468 352 451 328T403
271T353 221T299 171T248 125H539V10H46Z" />
<glyph unicode="3" glyph-name="null" horiz-adv-x="599" d="M59 636T125 690T299 745T468 691T529 553Q529 489 496 446T422 388V384Q542 343 542 203Q542 110 478 53T302 -4T119 53T45 220H181Q183 171 214 142T299 112T379 140T407 222T370 300T251 326H222V441H251Q393
441 393 536Q393 577 367 601T293 625T221 598T193 538H56Q59 636 125 690Z" />
<glyph unicode="4" glyph-name="null" horiz-adv-x="661" d="M406 264V568L206 264H406ZM397 0V142H48V252L374 720H537V264H625V142H537V0H397Z" />
<glyph unicode="5" glyph-name="null" horiz-adv-x="644" d="M91 731H538V608H219V442Q240 465 277 480T367 496T467 474T540 415Q590 343 590 255Q590 139 524 70T339 0T154 55T74 201H212Q221 162 253 139T340 116T425 153T455 251T425 345T343 378Q247 378
225 301H91V731Z" />
<glyph unicode="6" glyph-name="null" horiz-adv-x="640" d="M446 294T416 329T330 365T238 333T203 243T238 150T328 115T415 149T446 238ZM327 631Q259 631 225 577T190 404Q216 442 262 462T358 482Q458 482 520 419T582 245T518 67T340 0Q192 0 130 93T67
376Q67 747 329 747Q434 747 492 691T561 550H431Q412 631 327 631Z" />
<glyph unicode="7" glyph-name="null" horiz-adv-x="560" d="M41 724H523V620L253 0H100L383 608H41V724Z" />
<glyph unicode="8" glyph-name="null" horiz-adv-x="643" d="M379 333T321 333T228 303T193 219T227 133T320 100T412 133T445 218T412 302ZM431 583T402 610T322 637T242 610T212 537T243 462T321 434T400 462T431 536ZM75 555Q75 638 139 695T321 753T503 695T567
554Q567 446 468 394Q585 344 585 211Q585 107 511 46T322 -16T133 45T58 211Q58 276 89 323T175 394Q75 447 75 555Z" />
<glyph unicode="9" glyph-name="null" horiz-adv-x="636" d="M206 457T236 423T322 388T408 419T438 508T407 597T322 630T237 596T206 509ZM333 116Q395 116 423 165T452 330Q430 303 390 287T303 271Q200 271 136 330T71 501T137 680T317 746Q460 746 517 654T575
371T522 91T324 0Q211 0 153 60T90 210H220Q236 116 333 116Z" />
<glyph unicode=":" glyph-name="null" horiz-adv-x="313" d="M188 410T154 410T97 433T74 489T97 546T154 570T211 547T234 490T211 433ZM188 0T154 0T97 23T74 80T97 137T154 160T211 137T234 80T211 23Z" />
<glyph unicode=";" glyph-name="null" horiz-adv-x="336" d="M258 456T235 433T178 410T121 433T98 490T121 547T177 570T234 547T258 490ZM107 91H230Q267 -12 246 -87Q235 -124 204 -146T122 -168V-112Q148 -112 160 -100T172 -58V-39H107V91Z" />
<glyph unicode="&lt;" glyph-name="null" horiz-adv-x="585" d="M258 356L477 132H300L82 356L300 580H477L258 356Z" />
<glyph unicode="=" glyph-name="null" horiz-adv-x="777" d="M116 413V539H661V413H116ZM116 173V298H661V173H116Z" />
<glyph unicode="&gt;" glyph-name="null" horiz-adv-x="576" d="M90 132L308 356L90 580H266L484 356L266 132H90Z" />
<glyph unicode="?" glyph-name="null" horiz-adv-x="641" d="M180 43T180 77T203 134T260 157T317 134T341 77T318 20T261 -3T204 20ZM91 636T152 695T319 754T489 697T553 538T495 389T323 341V232H191V434H248Q334 434 375 456T417 542Q417 586 392 612T322
638T252 613T226 543H93Q91 636 152 695Z" />
<glyph unicode="@" glyph-name="null" horiz-adv-x="1231" d="M43 221Q43 391 130 524T365 730T694 803Q918 803 1053 684T1189 359Q1189 205 1097 99T887 -8Q820 -8 784 25T743 116Q672 -8 545 -8Q443 -8 379 73T331 279T439 482T649 561T832 489T882 300L862
164Q856 113 897 113Q947 113 996 182T1045 359Q1045 510 946 601T677 692Q464 692 325 556T186 221Q186 51 294 -48T598 -150L570 -261Q332 -259 188 -129T43 221ZM458 203T492 158T582 113T685 158T743 277Q754 351 719 395T629 440T527 395T469 277Z" />
<glyph unicode="A" glyph-name="null" horiz-adv-x="705" d="M533 0L488 131H216L171 0H22L269 700H436L682 0H533ZM253 239H452L352 530L253 239Z" />
<glyph unicode="B" glyph-name="null" horiz-adv-x="650" d="M75 698H358Q465 698 526 646T588 514Q588 397 452 357Q521 347 562 298T604 183Q604 101 542 51T374 0H75V698ZM216 590V409H343Q390 409 417 432T445 499T418 566T343 590H216ZM216 108H358Q405 108
433 133T462 204T433 275T357 301H216V108Z" />
<glyph unicode="C" glyph-name="null" horiz-adv-x="769" d="M36 196T36 351T139 607T393 708Q507 708 595 650T722 487H553Q506 579 393 579Q298 579 239 517T179 351T238 185T393 122Q505 122 553 214H722Q684 109 596 52T393 -6Q242 -6 139 95Z" />
<glyph unicode="D" glyph-name="null" horiz-adv-x="723" d="M216 107H312Q422 107 483 172T544 348T483 524T312 589H216V107ZM312 698Q480 698 583 602T687 348T584 95T312 0H75V698H312Z" />
<glyph unicode="E" glyph-name="null" horiz-adv-x="547" d="M478 700V592H216V409H448V301H216V108H478V0H75V700H478Z" />
<glyph unicode="F" glyph-name="null" horiz-adv-x="543" d="M75 0V698H507V590H216V407H438V299H216V0H75Z" />
<glyph unicode="G" glyph-name="null" horiz-adv-x="769" d="M36 196T36 351T139 607T393 708Q507 708 595 650T722 487H553Q506 579 393 579Q298 579 239 517T179 351T238 185T384 122T520 164T582 279H350V386H733V279Q715 165 621 80T385 -6T139 95Z" />
<glyph unicode="H" glyph-name="null" horiz-adv-x="732" d="M516 698H657V0H516V299H216V0H75V698H216V407H516V698Z" />
<glyph unicode="I" glyph-name="null" horiz-adv-x="291" d="M75 0V698H216V0H75Z" />
<glyph unicode="J" glyph-name="null" horiz-adv-x="578" d="M332 208V698H472V208Q472 107 412 50T255 -7T98 50T37 208H178Q179 165 199 142T255 118T311 141T332 208Z" />
<glyph unicode="K" glyph-name="null" horiz-adv-x="674" d="M216 0H75V698H216V386L468 698H652L349 348L652 0H469L216 310V0Z" />
<glyph unicode="L" glyph-name="null" horiz-adv-x="460" d="M75 698H216V107H440V0H75V698Z" />
<glyph unicode="M" glyph-name="null" horiz-adv-x="911" d="M836 698V0H696V441L506 0H405L216 439V0H75V698H232L456 181L680 698H836Z" />
<glyph unicode="N" glyph-name="null" horiz-adv-x="748" d="M532 700H673V0H532L216 484V0H75V700H216L532 216V700Z" />
<glyph unicode="O" glyph-name="null" horiz-adv-x="786" d="M606 247T606 351T547 517T393 579T239 517T179 351T238 185T393 122T547 184ZM242 -7T139 94T36 350T139 607T393 708T647 607T750 351T647 94T393 -7Z" />
<glyph unicode="P" glyph-name="null" horiz-adv-x="615" d="M531 350Q504 317 453 298T332 278H216V0H75V698H332Q453 698 518 638T584 495T531 350ZM216 386H332Q385 386 413 413T441 488T413 562T332 590H216V386Z" />
<glyph unicode="Q" glyph-name="null" horiz-adv-x="790" d="M393 -7Q242 -7 139 94T36 350T139 607T393 708T647 607T750 351Q750 259 712 183T605 59L760 -121H586L483 4Q437 -7 393 -7ZM298 579T239 517T179 351T238 185T393 122T547 184T606 351T547 517T393 579Z" />
<glyph unicode="R" glyph-name="null" horiz-adv-x="649" d="M216 278V0H75V698H332Q453 698 518 638T584 488Q584 422 544 365T418 287L596 0H429L262 278H216ZM216 590V386H332Q385 386 413 413T441 488T413 562T332 590H216Z" />
<glyph unicode="S" glyph-name="null" horiz-adv-x="624" d="M259 595T233 574T206 514T225 455T277 422T347 401T423 379T493 347T544 292T564 203Q564 117 496 55T314 -7T130 46T60 197H210Q218 105 315 105Q363 105 391 130T419 196T382 262T293 298T187 327T97
386T60 499Q60 594 129 651T306 708T481 659T553 508H399Q395 548 369 571T301 595Z" />
<glyph unicode="T" glyph-name="null" horiz-adv-x="584" d="M34 590V698H551V590H362V0H222V590H34Z" />
<glyph unicode="U" glyph-name="null" horiz-adv-x="709" d="M73 268V698H214V268Q214 196 250 159T355 122T460 159T497 268V698H637V268Q637 136 554 65T352 -7T153 64T73 268Z" />
<glyph unicode="V" glyph-name="null" horiz-adv-x="709" d="M269 0L14 698H163L354 141L545 698H695L439 0H269Z" />
<glyph unicode="W" glyph-name="null" horiz-adv-x="1020" d="M856 698H1007L805 0H645L510 487L371 0H211L13 698H163L297 159L438 698H597L730 164L856 698Z" />
<glyph unicode="X" glyph-name="null" horiz-adv-x="696" d="M646 698L428 349L646 0H487L343 230L209 0H50L269 349L50 698H209L353 468L488 698H646Z" />
<glyph unicode="Y" glyph-name="null" horiz-adv-x="643" d="M392 0H251V240L15 698H173L322 369L470 698H628L392 240V0Z" />
<glyph unicode="Z" glyph-name="null" horiz-adv-x="576" d="M526 698V590L212 108H526V0H50V108L364 590H50V698H526Z" />
<glyph unicode="[" glyph-name="null" horiz-adv-x="497" d="M135 -181V947H386V832H267V-66H386V-181H135Z" />
<glyph unicode="\" glyph-name="null" horiz-adv-x="757" d="M310 947L594 -181H458L173 947H310Z" />
<glyph unicode="]" glyph-name="null" horiz-adv-x="495" d="M361 947V-181H110V-66H229V832H110V947H361Z" />
<glyph unicode="^" glyph-name="null" horiz-adv-x="680" d="M503 167L340 534L176 167H33L273 700H408L647 167H503Z" />
<glyph unicode="_" glyph-name="null" horiz-adv-x="790" d="M107 -174V-41H694V-174H107Z" />
<glyph unicode="`" glyph-name="null" horiz-adv-x="271" d="M10 698V812L240 692V593L10 698Z" />
<glyph unicode="a" glyph-name="null" horiz-adv-x="687" d="M472 201T472 277T428 396T325 440T223 397T179 278T223 158T325 114T428 157ZM36 153T36 278T110 482T298 562T472 468V554H612V0H472V93Q409 -8 297 -8T111 72Z" />
<glyph unicode="b" glyph-name="null" horiz-adv-x="687" d="M508 202T508 278T465 397T362 440T260 397T216 277T259 158T362 114T464 158ZM216 468Q275 562 389 562T577 483T651 278T577 72T391 -8T216 93V0H75V740H216V468Z" />
<glyph unicode="c" glyph-name="null" horiz-adv-x="600" d="M36 148T36 277T112 484T309 562Q410 562 478 513T569 374H417Q390 443 309 443Q248 443 214 399T179 277T213 156T309 111Q389 111 417 181H569Q545 94 477 43T309 -8Q188 -8 112 70Z" />
<glyph unicode="d" glyph-name="null" horiz-adv-x="687" d="M472 201T472 277T428 396T325 440T223 397T179 278T223 158T325 114T428 157ZM36 153T36 278T110 482T298 562T472 468V740H612V0H472V93Q409 -8 297 -8T111 72Z" />
<glyph unicode="e" glyph-name="null" horiz-adv-x="624" d="M309 -8Q188 -8 112 70T36 278T112 484T310 562T510 487T588 285Q588 256 584 231H180Q185 177 220 144T309 111Q382 111 417 171H569Q545 92 476 42T309 -8ZM439 377T402 410T311 443T223 410T180
322H442Q439 377 402 410Z" />
<glyph unicode="f" glyph-name="null" horiz-adv-x="334" d="M312 554V439H224V0H84V439H24V554H84V585Q84 685 137 731T304 777V659Q260 659 242 642T224 585V554H312Z" />
<glyph unicode="g" glyph-name="null" horiz-adv-x="687" d="M36 153T36 278T110 482T298 562T472 468V554H612V-4Q612 -123 542 -198T346 -274T145 -222T60 -72H198Q211 -109 248 -130T341 -152T434 -115T472 -4V93Q409 -8 297 -8T111 72ZM472 201T472 277T428
396T325 440T223 397T179 278T223 158T325 114T428 157Z" />
<glyph unicode="h" glyph-name="null" horiz-adv-x="673" d="M216 740V471Q269 562 388 562Q483 562 543 500T603 326V0H463V306Q463 371 430 405T340 440T250 406T216 306V0H75V740H216Z" />
<glyph unicode="i" glyph-name="null" horiz-adv-x="291" d="M231 659T206 634T146 609T85 634T60 695T85 756T145 781T206 756T231 695ZM75 0V554H216V0H75Z" />
<glyph unicode="j" glyph-name="null" horiz-adv-x="291" d="M75 554H216V-96Q216 -186 170 -225T39 -264H-23V-145H17Q49 -145 62 -134T75 -96V554ZM231 659T206 634T146 609T85 634T60 695T85 756T145 781T206 756T231 695Z" />
<glyph unicode="k" glyph-name="null" horiz-adv-x="600" d="M216 0H75V740H216V317L403 554H594L348 274L594 0H406L216 231V0Z" />
<glyph unicode="l" glyph-name="null" horiz-adv-x="291" d="M75 0V740H216V0H75Z" />
<glyph unicode="m" glyph-name="null" horiz-adv-x="1060" d="M216 554V471Q269 562 388 562Q451 562 500 533T577 450Q606 502 656 532T770 562Q869 562 929 500T990 326V0H850V306Q850 371 817 405T727 440T637 406T603 306V0H463V306Q463 371 430 405T340 440T250
406T216 306V0H75V554H216Z" />
<glyph unicode="n" glyph-name="null" horiz-adv-x="673" d="M216 554V471Q269 562 388 562Q483 562 543 500T603 326V0H463V306Q463 371 430 405T340 440T250 406T216 306V0H75V554H216Z" />
<glyph unicode="o" glyph-name="null" horiz-adv-x="645" d="M380 111T422 154T465 277T423 400T322 443T221 400T180 277T221 154T321 111ZM37 150T37 278T119 484T322 562T526 484T608 278T526 71T321 -8T118 71Z" />
<glyph unicode="p" glyph-name="null" horiz-adv-x="687" d="M508 202T508 278T465 397T362 440T260 397T216 277T259 158T362 114T464 158ZM216 468Q275 562 389 562T577 483T651 278T577 72T391 -8T216 93V-264H75V554H216V468Z" />
<glyph unicode="q" glyph-name="null" horiz-adv-x="687" d="M472 201T472 277T428 396T325 440T223 397T179 278T223 158T325 114T428 157ZM36 153T36 278T110 482T298 562T472 468V554H612V-264H472V93Q409 -8 297 -8T111 72Z" />
<glyph unicode="r" glyph-name="null" horiz-adv-x="403" d="M216 554V456Q272 562 378 562V418H343Q280 418 248 387T216 278V0H75V554H216Z" />
<glyph unicode="s" glyph-name="null" horiz-adv-x="544" d="M44 392Q44 464 105 513T267 562T429 514T494 382H350Q344 452 264 452Q224 452 202 436T180 392T213 348T293 323T386 301T466 253T499 161Q499 86 436 39T274 -8T112 38T43 172H187Q195 102 276 102Q315
102 339 119T363 165T330 210T250 236T157 258T77 304T44 392Z" />
<glyph unicode="t" glyph-name="null" horiz-adv-x="392" d="M290 118H357V0H268Q183 0 137 39T91 168V439H32V554H91V691H232V554H356V439H232V168Q232 141 245 130T290 118Z" />
<glyph unicode="u" glyph-name="null" horiz-adv-x="673" d="M457 554H598V0H457V84Q404 -7 284 -7Q190 -7 130 55T70 229V554H210V249Q210 184 243 149T333 114T423 149T457 249V554Z" />
<glyph unicode="v" glyph-name="null" horiz-adv-x="599" d="M7 554H157L300 121L442 554H592L388 0H211L7 554Z" />
<glyph unicode="w" glyph-name="null" horiz-adv-x="844" d="M703 554H838L668 0H518L423 372L327 0H177L7 554H149L251 133L353 554H501L601 134L703 554Z" />
<glyph unicode="x" glyph-name="null" horiz-adv-x="522" d="M516 554L336 283L515 0H357L251 167L149 0H7L186 270L7 554H165L271 386L373 554H516Z" />
<glyph unicode="y" glyph-name="null" horiz-adv-x="609" d="M224 10L7 554H165L306 160L455 554H602L256 -262H109L224 10Z" />
<glyph unicode="z" glyph-name="null" horiz-adv-x="492" d="M444 554V439L211 116H444V0H47V116L281 439H47V554H444Z" />
<glyph unicode="{" glyph-name="null" horiz-adv-x="536" d="M340 246Q340 215 332 155T324 54Q324 -45 360 -112T457 -201V-217H314Q185 -159 185 37Q185 73 193 135T202 232Q202 335 104 346V398Q202 408 202 512Q202 546 194 608T185 707Q185 903 314 961H457V945Q397
923 361 856T324 690Q324 649 332 589T340 498Q340 393 235 373V371Q340 351 340 246Z" />
<glyph unicode="|" glyph-name="null" horiz-adv-x="351" d="M105 808H246V-120H105V808Z" />
<glyph unicode="}" glyph-name="null" horiz-adv-x="525" d="M197 498Q197 529 205 589T213 690Q213 789 177 856T80 945V961H222Q351 903 351 707Q351 671 343 609T334 508T356 437T432 398V346Q378 340 356 307T334 236T342 136T351 37Q351 -159 222 -217H80V-201Q140
-179 176 -112T213 54Q213 95 205 155T197 246Q197 351 302 371V373Q197 393 197 498Z" />
<glyph unicode="~" glyph-name="null" horiz-adv-x="589" d="M208 413Q253 413 308 381T389 348T433 364T455 412H556Q525 223 380 223Q335 223 280 255T199 288T155 272T133 224H33Q64 413 208 413Z" />
</font>
</defs>
</svg>
