<?xml version="1.0" standalone="no"?> <!DOCTYPE svg PUBLIC "-//W3C//DTD SVG 1.0//EN" "http://www.w3.org/TR/2001/REC-SVG-20010904/DTD/svg10.dtd" > <svg xmlns="http://www.w3.org/2000/svg" width="100%" height="100%">
<defs >
<font horiz-adv-x="596" ><font-face
    font-family="Poppins Medium"
    units-per-em="1000"
    panose-1="2 0 0 0 0 0 0 0 0 0"
    ascent="1115"
    descent="-525"
    alphabetic="0" />
<missing-glyph horiz-adv-x="753" d="M237 640V61H516V640H237ZM171 0V701H581V0H171Z" />
<glyph unicode=" " glyph-name="null" horiz-adv-x="300" />
<glyph unicode="!" glyph-name="null" horiz-adv-x="414" d="M285 40T265 20T217 0T168 20T148 68T167 117T216 137T265 117T285 69ZM166 220L153 749H274L260 220H166Z" />
<glyph unicode="&quot;" glyph-name="null" horiz-adv-x="323" d="M198 592L185 797H288L276 592H198ZM47 592L34 797H137L125 592H47Z" />
<glyph unicode="#" glyph-name="null" horiz-adv-x="872" d="M812 458H658L621 285H753V185H600L560 0H451L491 185H295L255 0H146L186 185H31V285H207L244 458H90V558H265L304 740H413L374 558H570L609 740H718L679 558H812V458ZM512 285L549 458H353L316 285H512Z" />
<glyph unicode="$" glyph-name="null" horiz-adv-x="650" d="M544 198Q544 121 487 62T331 -6V-87H274V-6Q178 1 119 51T60 185H182Q189 100 274 87V307Q183 328 146 350Q101 376 84 406Q60 448 60 502Q60 587 119 641T274 703V784H331V703Q421 696 475 649T537
517H415Q412 549 390 574T331 607V391Q426 369 458 350Q505 321 517 299Q544 252 544 198ZM229 604T203 579T176 510T201 443T274 406V610Q229 604 203 579ZM377 94T403 122T429 191T404 255T331 292V87Q377 94 403 122Z" />
<glyph unicode="%" glyph-name="null" horiz-adv-x="722" d="M592 228T529 228T466 144T529 60T592 144ZM378 73T378 144T420 256T529 297T638 256T681 144T639 32T530 -10T421 31ZM105 0L504 696H616L217 0H105ZM256 637T193 637T130 553T193 468T256 552ZM41
482T41 553T83 665T193 706T302 665T345 553T303 441T193 399T84 440Z" />
<glyph unicode="&amp;" glyph-name="null" horiz-adv-x="677" d="M246 -8Q158 -8 97 52T36 202T94 351T233 410L216 418Q149 510 149 575T199 690T336 740T473 693T524 581Q524 552 515 530H403Q411 548 411 575T390 623T337 644T284 623T263 567T301 482L666
0H530L439 123Q418 66 365 29T246 -8ZM201 86T247 86T325 120T358 204T326 287T247 321T169 287T137 204T169 120Z" />
<glyph unicode="&apos;" glyph-name="null" horiz-adv-x="172" d="M47 592L34 797H137L125 592H47Z" />
<glyph unicode="(" glyph-name="null" horiz-adv-x="538" d="M273 -96T200 60T127 402T200 744T393 989H511V978Q374 869 306 720T238 403T306 86T511 -174V-185H393Q273 -96 200 60Z" />
<glyph unicode=")" glyph-name="null" horiz-adv-x="539" d="M266 901T339 745T412 403T339 61T145 -185H27V-174Q165 -64 233 85T301 402T233 719T27 978V989H145Q266 901 339 745Z" />
<glyph unicode="*" glyph-name="null" horiz-adv-x="504" d="M299 736L277 590L392 679L437 599L300 548L437 497L391 415L277 505L298 360H206L225 505L111 413L63 498L199 549L63 598L109 680L226 590L206 736H299Z" />
<glyph unicode="+" glyph-name="null" horiz-adv-x="714" d="M612 412V310H411V106H303V310H102V412H303V616H411V412H612Z" />
<glyph unicode="," glyph-name="null" horiz-adv-x="202" d="M36 78H144Q183 -70 130 -124Q101 -155 45 -155V-105Q70 -105 81 -93T93 -53V-32H36V78Z" />
<glyph unicode="-" glyph-name="null" horiz-adv-x="585" d="M87 314V410H498V314H87Z" />
<glyph unicode="." glyph-name="null" horiz-adv-x="235" d="M146 0T117 0T69 20T49 68T68 117T117 137T166 117T186 68T166 20Z" />
<glyph unicode="/" glyph-name="null" horiz-adv-x="514" d="M61 -175L332 944H445L173 -175H61Z" />
<glyph unicode="0" glyph-name="null" horiz-adv-x="641" d="M246 729T320 729T446 702T526 623T567 510T580 366T568 223T527 109T446 30T320 2T194 29T114 108T73 222T60 366T72 509T113 623T194 701ZM320 625Q272 625 241 605T196 544Q172 475 172 366Q172
256 196 187Q224 106 320 106T444 187Q468 256 468 366Q468 475 444 544Q416 625 320 625Z" />
<glyph unicode="1" glyph-name="null" horiz-adv-x="350" d="M138 0V606H45V710H253V0H138Z" />
<glyph unicode="2" glyph-name="null" horiz-adv-x="577" d="M51 10V93Q76 115 124 156T197 219T261 277T320 338T363 396Q404 454 404 512Q404 636 286 636Q227 636 195 599T160 498H50Q53 612 118 672T289 733T455 674T517 518Q517 445 478 379Q457 345 438
319T385 258T331 205T273 152T220 105H537V10H51Z" />
<glyph unicode="3" glyph-name="null" horiz-adv-x="594" d="M64 642T129 694T298 746T461 693T521 556Q521 494 488 450T409 391V387Q468 369 501 322T534 192T473 53T302 -4T123 51T48 211H158Q162 158 199 125T298 91T393 124T426 211Q426 281 382 310T245
340H219V434H246Q412 436 412 543Q412 591 381 619T294 648T206 620T169 549H58Q64 642 129 694Z" />
<glyph unicode="4" glyph-name="null" horiz-adv-x="647" d="M413 251V604L177 251H413ZM408 0V152H46V238L382 720H520V251H613V152H520V0H408Z" />
<glyph unicode="5" glyph-name="null" horiz-adv-x="639" d="M90 731H530V631H195V432Q216 460 257 479T354 498T457 476T530 417Q580 345 580 255Q580 141 515 71T335 0T153 54T74 197H185Q196 150 234 123T336 95T435 138T471 252T435 362T329 401Q280 401 247
377T198 310H90V731Z" />
<glyph unicode="6" glyph-name="null" horiz-adv-x="642" d="M471 306T436 346T335 387T228 351T185 245T224 136T331 95T434 134T471 239ZM331 652Q252 652 213 592T172 391Q198 435 248 459T356 483Q456 483 518 419T580 246T517 68T341 0Q186 0 128 104Q98
156 86 222T74 381Q74 747 332 747Q432 747 489 693T557 560H452Q430 652 331 652Z" />
<glyph unicode="7" glyph-name="null" horiz-adv-x="560" d="M40 726H522V641L244 0H119L410 631H40V726Z" />
<glyph unicode="8" glyph-name="null" horiz-adv-x="638" d="M466 273T426 307T320 341T212 308T170 213T210 114T318 77T426 114T466 212ZM450 597T415 627T320 657T224 627T189 544T225 459T319 427T413 459T450 544ZM79 555Q79 639 141 695T319 752T496 696T559
555Q559 499 531 457T455 391Q512 369 545 321T578 206Q578 104 506 43T320 -18T133 43T61 206Q61 274 94 322T183 391Q79 443 79 555Z" />
<glyph unicode="9" glyph-name="null" horiz-adv-x="635" d="M186 447T221 408T323 368T423 405T458 508T422 612T322 651T223 612T186 510ZM334 96Q405 96 438 152T471 343Q447 309 404 291T309 272Q208 272 143 333T77 504T141 680T319 746Q455 746 512 656T570
374T517 92T327 1Q220 1 162 57T97 198H202Q222 96 334 96Z" />
<glyph unicode=":" glyph-name="null" horiz-adv-x="307" d="M217 458T197 439T149 419T100 438T80 487T100 536T148 556T197 536T217 487ZM217 39T197 20T149 0T100 20T80 68T99 117T148 137T197 117T217 68Z" />
<glyph unicode=";" glyph-name="null" horiz-adv-x="304" d="M192 420T163 420T115 440T95 488T114 537T163 557T212 537T232 488T212 440ZM102 78H210Q249 -70 196 -124Q167 -155 111 -155V-105Q136 -105 147 -93T159 -53V-32H102V78Z" />
<glyph unicode="&lt;" glyph-name="null" horiz-adv-x="612" d="M241 361L472 134H328L98 361L328 588H472L241 361Z" />
<glyph unicode="=" glyph-name="null" horiz-adv-x="774" d="M121 424V525H653V424H121ZM121 197V298H653V197H121Z" />
<glyph unicode="&gt;" glyph-name="null" horiz-adv-x="590" d="M112 134L343 361L112 588H256L486 361L256 134H112Z" />
<glyph unicode="?" glyph-name="null" horiz-adv-x="633" d="M189 34T189 63T209 112T257 132T306 112T326 63T306 14T258 -6T209 14ZM95 634T156 691T318 748T481 692T543 534T484 384T309 336V214H201V414H249Q343 413 388 438T434 539Q434 592 404 622T319
652T234 623T203 542H96Q95 634 156 691Z" />
<glyph unicode="@" glyph-name="null" horiz-adv-x="1192" d="M49 213Q49 378 130 511T353 718T669 793Q882 793 1012 675T1143 359Q1143 205 1056 98T860 -9Q797 -9 766 25T732 114Q658 -9 530 -9Q427 -9 363 73T316 279T424 481T629 559T807 484T854 292L832
143Q824 89 869 89Q923 89 974 166T1025 360Q1025 514 926 607T654 701Q443 701 305 560T166 213Q166 37 276 -61T578 -164L555 -256Q328 -252 189 -127T49 213ZM495 89T558 89T674 142T740 275T714 408T612 461T496 409T430 275T456 142Z" />
<glyph unicode="A" glyph-name="null" horiz-adv-x="697" d="M544 0L494 142H203L153 0H34L283 696H415L664 0H544ZM234 231H463L349 558L234 231Z" />
<glyph unicode="B" glyph-name="null" horiz-adv-x="630" d="M75 695H340Q447 695 506 643T565 511Q565 394 430 357Q498 346 539 297T581 183Q581 103 519 52T353 0H75V695ZM189 606V400H330Q386 400 417 427T449 502T418 578T330 606H189ZM189 89H343Q401 89
434 118T467 198T432 280T339 311H189V89Z" />
<glyph unicode="C" glyph-name="null" horiz-adv-x="773" d="M243 -6T140 94T37 348T140 603T392 704Q503 704 589 650T715 495H578Q522 600 392 600Q287 600 221 531T154 349T220 166T392 97Q522 97 578 202H715Q676 102 590 48T392 -6Q243 -6 140 94Z" />
<glyph unicode="D" glyph-name="null" horiz-adv-x="709" d="M189 87H302Q423 87 488 156T554 345T489 534T302 603H189V87ZM302 695Q470 695 570 601T671 346T571 93T302 0H75V695H302Z" />
<glyph unicode="E" glyph-name="null" horiz-adv-x="524" d="M459 696V607H189V396H429V308H189V89H459V0H75V696H459Z" />
<glyph unicode="F" glyph-name="null" horiz-adv-x="515" d="M75 0V695H484V606H189V395H419V307H189V0H75Z" />
<glyph unicode="G" glyph-name="null" horiz-adv-x="773" d="M243 -6T140 94T37 348T140 603T392 704Q503 704 589 650T715 495H578Q522 600 392 600Q287 600 221 531T154 349T220 166T386 97T543 149T614 292H353V381H736V292Q720 167 624 81T386 -6Z" />
<glyph unicode="H" glyph-name="null" horiz-adv-x="705" d="M516 695H630V0H516V307H189V0H75V695H189V395H516V695Z" />
<glyph unicode="I" glyph-name="null" horiz-adv-x="264" d="M75 0V695H189V0H75Z" />
<glyph unicode="J" glyph-name="null" horiz-adv-x="564" d="M339 194V695H454V194Q454 101 398 47T249 -7T101 47T44 194H159Q160 148 182 121T249 94T316 121T339 194Z" />
<glyph unicode="K" glyph-name="null" horiz-adv-x="633" d="M189 0H75V695H189V378L459 695H608L294 346L608 0H458L189 311V0Z" />
<glyph unicode="L" glyph-name="null" horiz-adv-x="444" d="M75 695H189V87H424V0H75V695Z" />
<glyph unicode="M" glyph-name="null" horiz-adv-x="882" d="M807 695V0H693V476L481 0H402L189 476V0H75V695H198L442 150L685 695H807Z" />
<glyph unicode="N" glyph-name="null" horiz-adv-x="721" d="M532 696H646V0H532L189 519V0H75V696H189L532 178V696Z" />
<glyph unicode="O" glyph-name="null" horiz-adv-x="784" d="M497 96T563 165T630 348T564 531T392 600T221 531T154 349T220 166T392 96ZM243 -7T140 93T37 348T140 603T392 704T644 604T747 349T645 94T393 -7Z" />
<glyph unicode="P" glyph-name="null" horiz-adv-x="595" d="M433 695T497 637T561 491T501 343T315 282H189V0H75V695H315Q433 695 497 637ZM189 371H315Q380 371 412 402T444 488T412 575T315 606H189V371Z" />
<glyph unicode="Q" glyph-name="null" horiz-adv-x="787" d="M392 -7Q243 -7 140 93T37 348T140 603T392 704T644 604T747 349Q747 253 706 176T591 51L758 -126H613L491 6Q446 -7 392 -7ZM287 600T221 531T154 349T220 166T392 96T563 165T630 348T564 531T392 600Z" />
<glyph unicode="R" glyph-name="null" horiz-adv-x="632" d="M189 282V0H75V695H315Q433 695 497 637T561 488Q561 418 519 362T388 289L572 0H433L259 282H189ZM189 606V371H315Q380 371 412 402T444 488T412 575T315 606H189Z" />
<glyph unicode="S" glyph-name="null" horiz-adv-x="604" d="M240 611T208 585T176 510T214 434T306 396T414 369T506 311T544 192T479 54T305 -7T128 44T60 185H182Q186 139 216 112T304 85T395 115T429 186T409 250T356 284T284 305T206 326T134 357T81 412T60
502Q60 593 125 648T295 704T462 656T532 517H406Q402 557 372 584T291 611Z" />
<glyph unicode="T" glyph-name="null" horiz-adv-x="564" d="M39 606V695H524V606H339V0H225V606H39Z" />
<glyph unicode="U" glyph-name="null" horiz-adv-x="690" d="M74 254V695H188V254Q188 175 229 135T345 95T461 135T503 254V695H617V254Q617 128 539 61T344 -7T151 60T74 254Z" />
<glyph unicode="V" glyph-name="null" horiz-adv-x="694" d="M281 0L19 695H141L346 118L553 695H674L413 0H281Z" />
<glyph unicode="W" glyph-name="null" horiz-adv-x="999" d="M858 695H980L774 0H645L499 526L344 0L216 -1L19 695H140L284 129L440 695H568L713 132L858 695Z" />
<glyph unicode="X" glyph-name="null" horiz-adv-x="660" d="M611 695L394 347L610 0H482L325 252L178 0H50L266 347L50 695H178L335 442L483 695H611Z" />
<glyph unicode="Y" glyph-name="null" horiz-adv-x="605" d="M360 0H246V252L15 695H142L302 356L462 695H590L360 252V0Z" />
<glyph unicode="Z" glyph-name="null" horiz-adv-x="558" d="M508 695V606L181 89H508V0H50V89L376 606H50V695H508Z" />
<glyph unicode="[" glyph-name="null" horiz-adv-x="485" d="M148 -176V944H356V850H255V-81H356V-176H148Z" />
<glyph unicode="\" glyph-name="null" horiz-adv-x="717" d="M276 944L576 -175H464L164 944H276Z" />
<glyph unicode="]" glyph-name="null" horiz-adv-x="484" d="M336 944V-176H128V-81H230V850H128V944H336Z" />
<glyph unicode="^" glyph-name="null" horiz-adv-x="654" d="M500 168L328 558L154 168H36L273 696H381L619 168H500Z" />
<glyph unicode="_" glyph-name="null" horiz-adv-x="798" d="M126 -146V-40H684V-146H126Z" />
<glyph unicode="`" glyph-name="null" horiz-adv-x="254" d="M10 699V796L231 674V590L10 699Z" />
<glyph unicode="a" glyph-name="null" horiz-adv-x="678" d="M488 191T488 276T439 411T321 461T204 412T154 278T203 142T321 90T438 140ZM187 -9T112 71T37 277T111 481T297 560Q362 560 411 531T488 453V551H603V0H488V103Q460 52 411 22T297 -9Q187 -9 112 71Z" />
<glyph unicode="b" glyph-name="null" horiz-adv-x="678" d="M524 193T524 278T475 412T357 461T239 411T189 276T238 141T356 90T474 141ZM381 560Q492 560 566 482T640 278T566 72T381 -9Q316 -9 267 21T189 103V0H75V740H189V453Q217 501 266 530T381 560Z" />
<glyph unicode="c" glyph-name="null" horiz-adv-x="600" d="M187 -9T112 69T37 275T112 482T307 560Q407 560 472 513T561 377H438Q407 464 307 464Q237 464 196 415T154 276T195 137T307 87Q406 87 438 174H561Q537 90 471 41T307 -9Q187 -9 112 69Z" />
<glyph unicode="d" glyph-name="null" horiz-adv-x="678" d="M488 191T488 276T439 411T321 461T204 412T154 278T203 142T321 90T438 140ZM187 -9T112 71T37 277T111 481T297 560Q362 560 411 531T488 453V740H603V0H488V103Q460 52 411 22T297 -9Q187 -9 112 71Z" />
<glyph unicode="e" glyph-name="null" horiz-adv-x="617" d="M307 -9Q187 -9 112 69T37 276T113 482T309 560T505 486T580 291Q580 262 576 237H154Q158 168 200 128T307 87Q400 87 438 164H561Q536 88 470 40T307 -9ZM460 383T416 423T309 464T204 424T155 315H461Q460
383 416 423Z" />
<glyph unicode="f" glyph-name="null" horiz-adv-x="332" d="M306 551V458H204V0H89V458H24V551H89V590Q89 685 139 728T298 772V677Q246 677 225 658T204 590V551H306Z" />
<glyph unicode="g" glyph-name="null" horiz-adv-x="678" d="M187 -9T112 71T37 277T111 481T297 560Q362 560 411 531T488 453V551H603V-9Q603 -125 532 -198T341 -272T148 -220T64 -77H177Q190 -120 232 -146T339 -173T445 -131T488 -9V103Q460 52 411 22T297
-9Q187 -9 112 71ZM488 191T488 276T439 411T321 461T204 412T154 278T203 142T321 90T438 140Z" />
<glyph unicode="h" glyph-name="null" horiz-adv-x="649" d="M189 740V464Q244 560 365 560Q458 560 518 498T579 325V0H466V308Q466 382 429 421T328 461T227 422T189 308V0H75V740H189Z" />
<glyph unicode="i" glyph-name="null" horiz-adv-x="264" d="M205 666T184 645T133 624T81 645T60 697T81 749T132 770T184 749T205 697ZM75 0V551H189V0H75Z" />
<glyph unicode="j" glyph-name="null" horiz-adv-x="264" d="M75 551H189V-108Q189 -262 31 -262H-28V-166H11Q46 -166 60 -153T75 -108V551ZM205 666T184 645T133 624T81 645T60 697T81 749T132 770T184 749T205 697Z" />
<glyph unicode="k" glyph-name="null" horiz-adv-x="554" d="M189 0H75V740H189V310L389 551H547L293 275L547 0H393L189 237V0Z" />
<glyph unicode="l" glyph-name="null" horiz-adv-x="264" d="M75 0V740H189V0H75Z" />
<glyph unicode="m" glyph-name="null" horiz-adv-x="1039" d="M189 551V464Q244 560 365 560Q429 560 479 530T555 443Q584 498 635 529T752 560Q847 560 908 499T969 325V0H855V308Q855 382 818 421T717 461T616 422T579 308V0H466V308Q466 382 429 421T328 461T227
422T189 308V0H75V551H189Z" />
<glyph unicode="n" glyph-name="null" horiz-adv-x="649" d="M189 551V464Q244 560 365 560Q458 560 518 498T579 325V0H466V308Q466 382 429 421T328 461T227 422T189 308V0H75V551H189Z" />
<glyph unicode="o" glyph-name="null" horiz-adv-x="638" d="M483 187T483 276T435 414T317 464T201 415T154 276T200 137T314 87T433 137ZM194 -9T116 69T38 275T118 481T319 560T519 482T600 276T518 70T315 -9Z" />
<glyph unicode="p" glyph-name="null" horiz-adv-x="678" d="M524 193T524 278T475 412T357 461T239 411T189 276T238 141T356 90T474 141ZM381 560Q492 560 566 482T640 278T566 72T381 -9Q316 -9 267 21T189 103V-262H75V551H189V453Q217 501 266 530T381 560Z" />
<glyph unicode="q" glyph-name="null" horiz-adv-x="678" d="M488 191T488 276T439 411T321 461T204 412T154 278T203 142T321 90T438 140ZM187 -9T112 71T37 277T111 481T297 560Q362 560 411 531T488 453V551H603V-262H488V103Q460 52 411 22T297 -9Q187 -9 112 71Z" />
<glyph unicode="r" glyph-name="null" horiz-adv-x="384" d="M189 551V455Q242 560 354 560V442H325Q258 442 224 408T189 290V0H75V551H189Z" />
<glyph unicode="s" glyph-name="null" horiz-adv-x="534" d="M50 393Q50 463 109 511T264 560T416 513T477 383H360Q357 424 332 447T260 470T188 450T162 396T195 343T275 315T370 293T451 246T484 153Q484 81 424 36T268 -9T114 37T49 168H167Q170 127 197 104T270
81T344 101T372 156T339 209T259 237T164 259T83 305T50 393Z" />
<glyph unicode="t" glyph-name="null" horiz-adv-x="372" d="M342 458H208V153Q208 122 222 109T272 95H342V0H252Q93 0 93 153V458H28V551H93V688H208V551H342V458Z" />
<glyph unicode="u" glyph-name="null" horiz-adv-x="649" d="M460 551H574V0H460V87Q406 -8 284 -8Q191 -8 131 53T70 226V551H183V243Q183 169 220 130T321 90T422 129T460 243V551Z" />
<glyph unicode="v" glyph-name="null" horiz-adv-x="576" d="M10 551H132L288 102L444 551H567L357 0H219L10 551Z" />
<glyph unicode="w" glyph-name="null" horiz-adv-x="825" d="M703 551H815L644 0H524L413 407L302 0H182L10 551H126L241 108L358 551H477L589 110L703 551Z" />
<glyph unicode="x" glyph-name="null" horiz-adv-x="499" d="M489 551L311 279L489 0H360L241 187L129 0H10L188 271L10 551H139L258 364L370 551H489Z" />
<glyph unicode="y" glyph-name="null" horiz-adv-x="582" d="M227 9L10 551H137L292 131L453 551H571L233 -259H115L227 9Z" />
<glyph unicode="z" glyph-name="null" horiz-adv-x="471" d="M426 551V458L176 93H426V0H44V93L295 458H44V551H426Z" />
<glyph unicode="{" glyph-name="null" horiz-adv-x="543" d="M335 241Q335 210 327 151T319 49Q319 -50 354 -114T450 -201V-217H335Q208 -160 208 32Q208 68 216 130T225 227Q225 332 126 349V395Q225 410 225 517Q225 551 217 613T208 712Q208 904 335 961H450V945Q390
923 355 859T319 695Q319 652 327 593T335 503Q335 394 231 373V371Q335 350 335 241Z" />
<glyph unicode="|" glyph-name="null" horiz-adv-x="324" d="M105 801H219V-113H105V801Z" />
<glyph unicode="}" glyph-name="null" horiz-adv-x="536" d="M208 503Q208 534 216 593T224 695Q224 794 189 858T94 945V961H209Q335 905 335 712Q335 676 327 614T318 517Q318 410 418 395V349Q318 333 318 227Q318 193 326 131T335 32Q335 -161 209 -217H94V-201Q154
-179 189 -115T224 49Q224 92 216 151T208 241Q208 350 313 371V373Q208 395 208 503Z" />
<glyph unicode="~" glyph-name="null" horiz-adv-x="553" d="M195 403Q237 403 288 371T365 338T410 354T434 401H517Q489 236 357 236Q315 236 265 268T188 301T142 285T118 238H36Q64 403 195 403Z" />
</font>
</defs>
</svg>
