<?xml version="1.0" standalone="no"?>
<!DOCTYPE svg PUBLIC "-//W3C//DTD SVG 1.1//EN" "http://www.w3.org/Graphics/SVG/1.1/DTD/svg11.dtd" >
<svg>
<metadata>
Created by FontForge 20090914 at Fri Feb 24 12:59:51 2012
 By root
Merriweather is a medium contrast semi condesed typeface designed to be readable at very small sizes. Merriweather is traditional in feeling despite a the modern shapes it has adopted for screens. 
</metadata>
<defs>
<font id="Merriweather-Bold" horiz-adv-x="0" >
  <font-face 
    font-family="Merriweather"
    font-weight="700"
    font-stretch="normal"
    units-per-em="2048"
    panose-1="2 6 5 3 5 4 6 3 7 4"
    ascent="1638"
    descent="-410"
    x-height="1119"
    cap-height="1553"
    bbox="-151.021 -640 2697 1920"
    underline-thickness="196"
    underline-position="-95"
    stemh="135"
    stemv="284"
    unicode-range="U+0001-U+FB04"
  />
<missing-glyph horiz-adv-x="1770" 
d="M177 -1v1417h1416v-1417h-1416zM392 392l172 -186l316 358l344 -356l157 157l-357 345l360 344l-166 164l-333 -365l-342 360l-159 -163l354 -343z" />
    <glyph glyph-name=".notdef" horiz-adv-x="1770" 
d="M177 -1v1417h1416v-1417h-1416zM392 392l172 -186l316 358l344 -356l157 157l-357 345l360 344l-166 164l-333 -365l-342 360l-159 -163l354 -343z" />
    <glyph glyph-name=".null" unicode="&#xe000;" 
 />
    <glyph glyph-name="CR" unicode="&#xe001;" 
 />
    <glyph glyph-name="space" unicode=" " horiz-adv-x="544" 
 />
    <glyph glyph-name="numbersign" unicode="#" horiz-adv-x="1464" 
d="M319 0l29 354h-219v179h232l28 326h-236v177h247l33 319h211l-26 -319h274l27 319h220l-26 -319h222v-177h-238l-29 -326h230c0 -60 1 -119 1 -179h-244l-31 -354h-214l26 354h-269l-33 -354h-215zM580 533h269l27 326h-268z" />
    <glyph glyph-name="ampersand" unicode="&#x26;" horiz-adv-x="1582" 
d="M128 378c0 200 144 305 328 390c-86 117 -179 245 -176 398c4 258 218 391 435 391c246 0 403 -145 403 -337c0 -191 -158 -353 -342 -450c99 -127 276 -332 370 -426l6 -6c14 56 13 116 13 166c0 131 -25 211 -38 234h258c13 -26 34 -75 34 -184s-39 -243 -121 -342
c73 -50 141 -78 204 -82v-116c-46 -20 -115 -26 -186 -19c-66 8 -132 27 -209 69c-95 -60 -222 -94 -367 -94c-331 0 -612 115 -612 408zM696 875c124 74 176 184 176 342c0 93 -38 220 -170 220c-68 0 -158 -41 -168 -181c-14 -177 96 -305 162 -381zM402 419
c0 -218 171 -305 355 -305c91 0 168 9 228 32c-131 110 -326 341 -443 503c-82 -57 -140 -127 -140 -230z" />
    <glyph glyph-name="quotesingle" unicode="'" horiz-adv-x="759" 
d="M297 960l-70 822h305l-69 -822h-166z" />
    <glyph glyph-name="parenleft" unicode="(" horiz-adv-x="925" 
d="M140 718c0 625 416 989 512 1040l119 -86c-83 -56 -344 -322 -362 -901c-17 -587 282 -945 384 -1017l-129 -92c-97 55 -524 339 -524 1056z" />
    <glyph glyph-name="parenright" unicode=")" horiz-adv-x="925" 
d="M154 -253c83 56 345 322 362 901c17 587 -282 945 -384 1017l129 92c97 -55 524 -339 524 -1056c0 -626 -415 -989 -512 -1040z" />
    <glyph glyph-name="asterisk" unicode="*" horiz-adv-x="1264" 
d="M506 761l26 332l46 116l-79 -94l-263 -214l-129 176l324 173l113 26l-110 22l-329 157l127 190l266 -213l80 -88l-46 125l-26 324c26 0 210 -1 237 -1l-26 -323l-54 -125l91 101l258 198l147 -190l-346 -151l-116 -26l116 -28l343 -173l-148 -171l-260 212l-83 93
l46 -116l32 -332h-237z" />
    <glyph glyph-name="plus" unicode="+" horiz-adv-x="1298" 
d="M541 333v213l9 178l-160 -9h-215v213h215l160 -11l-9 180v219h216v-219l-10 -180l147 11h229v-213h-229l-147 9l10 -178v-213h-216z" />
    <glyph glyph-name="comma" unicode="," horiz-adv-x="748" 
d="M188 30v65l164 209c173 -55 244 -231 242 -367c-3 -264 -191 -429 -359 -491l-64 66v42c82 31 175 134 175 279c0 96 -73 189 -158 197z" />
    <glyph glyph-name="hyphen" unicode="-" horiz-adv-x="1286" 
d="M181 724v198h924v-198h-924z" />
    <glyph glyph-name="period" unicode="." horiz-adv-x="761" 
d="M195 133c0 109 106 192 199 192c118 0 172 -74 172 -164c0 -115 -102 -187 -202 -187c-85 0 -169 58 -169 159z" />
    <glyph glyph-name="slash" unicode="/" horiz-adv-x="822" 
d="M30 -363l540 1962h222l-540 -1962h-222z" />
    <glyph glyph-name="zero" unicode="0" horiz-adv-x="1371" 
d="M116 632c6 388 290 617 588 620c402 4 554 -277 551 -629c-4 -385 -267 -648 -577 -649c-395 -1 -566 316 -562 658zM693 106c192 -5 253 173 253 506c0 296 -91 504 -269 508c-192 4 -253 -176 -253 -473c0 -257 91 -536 269 -541z" />
    <glyph glyph-name="one" unicode="1" horiz-adv-x="968" 
d="M114 0v120l274 35v806c-73 -12 -187 -28 -275 -42l-29 135c126 35 432 173 481 212l104 -17l-4 -1095l251 -34v-120h-802z" />
    <glyph glyph-name="two" unicode="2" horiz-adv-x="1244" 
d="M148 0l-41 108c326 199 648 494 648 731c0 115 -68 245 -235 245c-151 0 -275 -85 -347 -145l-69 106c58 81 257 218 507 218c289 0 440 -171 440 -350c0 -276 -239 -506 -638 -760l546 59l94 128l119 -37l-67 -303h-957z" />
    <glyph glyph-name="three" unicode="3" horiz-adv-x="1097" 
d="M118 -166c323 -70 603 96 603 349c0 125 -42 270 -287 286l-188 -41v163c157 24 387 120 388 310c2 143 -100 197 -198 197c-156 0 -243 -59 -311 -106l-71 110c47 50 212 167 457 167c195 0 401 -91 401 -333c0 -157 -160 -330 -320 -380c256 4 413 -146 413 -350
c0 -311 -352 -616 -886 -520c0 51 -1 97 -1 148z" />
    <glyph glyph-name="four" unicode="4" horiz-adv-x="1284" 
d="M116 0l-41 114c194 334 451 760 630 1160h84l181 -126l-591 -911l-71 -94l478 41l11 416l233 40v-436l194 17v-221h-194v-376h-257l9 376h-666z" />
    <glyph glyph-name="five" unicode="5" horiz-adv-x="1113" 
d="M121 -209c290 -29 596 129 596 440c0 261 -178 374 -499 285l-89 36l69 685h607l28 29h122l-68 -250h-495l-69 -355c386 137 689 -71 689 -397c0 -356 -376 -615 -778 -615c-33 0 -78 3 -114 14z" />
    <glyph glyph-name="six" unicode="6" horiz-adv-x="1306" 
d="M120 556c0 530 472 912 891 988l62 -121c-356 -103 -661 -431 -666 -781c-5 -231 28 -537 277 -537c140 0 248 128 248 358c0 181 -92 328 -233 328c-76 0 -121 -18 -158 -42l-46 88c33 52 157 131 309 131c264 0 398 -206 398 -437c0 -290 -205 -554 -553 -554
c-331 0 -529 266 -529 579z" />
    <glyph glyph-name="seven" unicode="7" horiz-adv-x="1234" 
d="M307 -228c213 409 409 843 617 1327l-550 -24l-83 -208l-162 7l42 379h933l48 -53l-564 -1527z" />
    <glyph glyph-name="eight" unicode="8" horiz-adv-x="1273" 
d="M112 373c0 146 101 320 321 410c-137 98 -249 215 -249 387c0 266 242 391 474 391c241 0 448 -124 448 -357c0 -146 -134 -324 -273 -382c176 -114 341 -238 342 -412c2 -308 -271 -436 -524 -436c-260 0 -539 113 -539 399zM720 894c94 52 153 159 155 271
c3 164 -104 274 -231 274c-105 0 -224 -74 -224 -210c0 -131 140 -232 300 -335zM367 440c0 -194 126 -339 307 -339c115 0 243 74 243 236c0 157 -186 256 -370 371c-96 -59 -180 -151 -180 -268z" />
    <glyph glyph-name="nine" unicode="9" horiz-adv-x="1300" 
d="M262 -286c356 104 626 517 631 876c5 231 -22 536 -271 536c-139 0 -247 -128 -247 -358c0 -181 91 -328 232 -328c65 0 125 20 159 42l45 -88c-42 -60 -145 -131 -309 -131c-264 0 -398 206 -398 438c0 290 205 553 553 553c332 0 522 -267 522 -578
c0 -544 -438 -1007 -856 -1083z" />
    <glyph glyph-name="colon" unicode=":" horiz-adv-x="761" 
d="M364 739c-85 0 -169 58 -169 159c0 109 106 192 199 192c118 0 172 -74 172 -164c0 -115 -102 -187 -202 -187zM195 129c0 109 106 192 199 192c118 0 172 -74 172 -164c0 -115 -102 -187 -202 -187c-85 0 -169 58 -169 159z" />
    <glyph glyph-name="semicolon" unicode=";" horiz-adv-x="775" 
d="M365 739c-86 0 -170 58 -170 159c0 109 107 192 200 192c118 0 172 -74 172 -164c0 -115 -103 -187 -202 -187zM222 30v65l164 209c174 -55 244 -231 243 -367c-4 -264 -191 -429 -359 -491l-64 66v42c82 31 175 134 175 279c0 96 -74 189 -159 197z" />
    <glyph glyph-name="less" unicode="&#x3c;" horiz-adv-x="1331" 
d="M159 695v134l969 499v-245l-684 -323l684 -303v-252z" />
    <glyph glyph-name="equal" unicode="=" horiz-adv-x="1286" 
d="M181 951v194h924v-194h-924zM181 471v195h924v-195h-924z" />
    <glyph glyph-name="greater" unicode="&#x3e;" horiz-adv-x="1331" 
d="M203 196v245l683 322l-683 304v252l969 -490v-134z" />
    <glyph glyph-name="question" unicode="?" horiz-adv-x="1041" 
d="M410 520c-95 85 -171 233 -174 323c-3 191 497 235 526 331c-2 289 -277 432 -458 435c-92 3 -165 -5 -201 -28l-8 220c19 27 133 51 224 49c585 -16 666 -503 602 -719c-20 -97 -351 -165 -415 -274c-33 -78 54 -255 91 -337h-187zM366 131c0 109 107 192 199 192
c118 0 173 -74 173 -164c0 -115 -103 -187 -203 -187c-85 0 -169 58 -169 159z" />
    <glyph glyph-name="at" unicode="@" horiz-adv-x="2217" 
d="M182 396c0 652 560 1056 1078 1056c531 0 785 -291 785 -637c0 -489 -308 -765 -590 -778c-112 -5 -149 67 -154 186c-2 34 5 113 17 201c-80 -190 -223 -394 -388 -399c-141 -5 -302 145 -302 380c0 336 223 642 471 651c98 5 187 -14 268 -50c11 31 27 56 54 50
c64 -17 120 -39 186 -59c-28 -148 -61 -356 -79 -546c-17 -179 2 -262 23 -262c108 2 288 269 288 543c0 439 -321 573 -665 573c-359 0 -762 -304 -762 -818c0 -543 341 -713 716 -713c131 0 320 40 381 73l53 -109c-93 -70 -283 -116 -488 -116c-531 0 -892 292 -892 774z
M861 504c0 -117 22 -280 115 -280s300 354 336 607c-35 30 -138 51 -188 51c-165 0 -263 -141 -263 -378z" />
    <glyph glyph-name="A" unicode="A" horiz-adv-x="1554" 
d="M4 0v116l137 36l505 1401h262l487 -1401l155 -37v-115h-616v115l147 39l-69 225h-570l-71 -223l157 -40v-116h-524zM492 535h471l-146 471l-83 286z" />
    <glyph glyph-name="B" unicode="B" horiz-adv-x="1441" 
d="M91 0v116l161 38v1243l-157 21v135h287c34 5 190 11 357 14c348 6 531 -137 531 -361c0 -172 -87 -323 -275 -369c206 -2 379 -162 379 -376c0 -292 -197 -473 -683 -473c-118 0 -228 10 -361 12h-239zM537 881c41 -10 109 -8 179 -8c225 0 281 154 281 302
c0 154 -95 259 -303 259c-38 0 -123 -1 -155 -15zM536 151c34 -19 138 -32 226 -32c207 0 311 141 311 316c0 179 -85 300 -311 300c-74 0 -158 2 -226 -9v-575z" />
    <glyph glyph-name="C" unicode="C" horiz-adv-x="1447" 
d="M76 724c0 517 406 843 848 843c199 0 331 -48 421 -67l-19 -346h-164l-64 188c-52 47 -112 70 -255 70c-249 0 -455 -219 -455 -609c0 -359 165 -689 475 -689c165 0 239 41 276 98l71 180h136v-327c-98 -4 -220 -93 -517 -93c-469 0 -753 322 -753 752z" />
    <glyph glyph-name="D" unicode="D" horiz-adv-x="1606" 
d="M97 0v116l155 36v1246l-151 20v135h300c126 0 234 14 362 14c535 1 767 -298 767 -747c0 -524 -337 -835 -798 -830c-99 1 -226 11 -327 11c-102 0 -206 -1 -308 -1zM540 159c64 -28 149 -38 254 -31c240 14 435 239 435 629c0 453 -182 672 -506 671
c-81 -1 -140 -10 -183 -25v-1244z" />
    <glyph glyph-name="E" unicode="E" horiz-adv-x="1380" 
d="M101 0v116l157 36v1245l-152 21v135h1093l30 -318h-164l-73 164l-449 17v-546l306 8l44 153h147v-463h-147l-44 156l-306 6v-593l506 25l116 201l160 -31l-51 -332h-1173z" />
    <glyph glyph-name="F" unicode="F" horiz-adv-x="1286" 
d="M93 0v116l159 32v1250l-159 20v135h1115l26 -321l-143 -2l-61 158l-492 19v-555l354 10l54 150h128v-472h-143l-36 159l-357 6v-549l307 -25v-131h-752z" />
    <glyph glyph-name="G" unicode="G" horiz-adv-x="1564" 
d="M74 738c0 516 356 829 817 829c259 0 431 -42 487 -59l-19 -319h-148l-75 173c-15 21 -111 67 -284 66c-276 -2 -471 -251 -471 -618c0 -362 132 -702 456 -702c121 0 250 44 289 117v323l-225 23v137h594v-137l-107 -22v-483c-135 9 -368 -94 -608 -94
c-427 0 -706 332 -706 766z" />
    <glyph glyph-name="H" unicode="H" horiz-adv-x="1748" 
d="M83 0v116l169 38v1243l-171 21v135h627v-135l-168 -20v-545h669v546l-167 19v135h623v-135l-169 -20v-1245l179 -38v-115h-644v115l178 37v541h-669v-540l178 -37v-116h-635z" />
    <glyph glyph-name="I" unicode="I" horiz-adv-x="811" 
d="M77 0v116l184 37v1244l-183 21v135h648v-135l-176 -22v-1242l186 -38v-116h-659z" />
    <glyph glyph-name="J" unicode="J" horiz-adv-x="758" 
d="M206 -52c41 117 49 252 49 456v994l-156 20v135h596v-135l-151 -21v-856c0 -216 -8 -429 -43 -543c-82 -249 -346 -375 -540 -391l-62 88c139 49 254 125 307 253z" />
    <glyph glyph-name="K" unicode="K" horiz-adv-x="1485" 
d="M72 0v116l180 37v1243l-180 22v135h637v-135l-172 -23v-619l508 621l-158 21c0 45 -1 90 -2 135h567v-135l-176 -23l-449 -504c162 -155 437 -702 531 -738l143 -37v-116h-374c-98 0 -301 587 -453 719l-137 -154v-412l194 -37v-116h-659z" />
    <glyph glyph-name="L" unicode="L" horiz-adv-x="1272" 
d="M99 0v116l153 35v1231l-149 19v152h618v-152l-180 -20l-1 -1242l436 34l148 238l123 -51l-67 -360h-1081z" />
    <glyph glyph-name="M" unicode="M" horiz-adv-x="2024" 
d="M69 0v116l172 37l83 1226l-190 21v153h585l292 -923l38 -187l45 188l277 922h539v-153l-187 -20l107 -1227l164 -38v-115h-601v115l164 39l-67 839l-6 380l-37 -149l-384 -1241h-103l-353 1035c-15 41 -75 230 -116 355l-6 -306l-38 -912l187 -39v-116h-565z" />
    <glyph glyph-name="N" unicode="N" horiz-adv-x="1687" 
d="M89 0v116l163 39v1226l-156 20v152h442l631 -1068l112 -261v1155l-174 24v150h514v-150l-150 -21v-1382h-311l-595 970l-120 277v-1090l199 -41v-116h-555z" />
    <glyph glyph-name="O" unicode="O" horiz-adv-x="1580" 
d="M75 753c11 507 352 809 736 814c427 5 703 -328 694 -778c-11 -506 -320 -814 -719 -817c-440 -4 -720 335 -711 781zM800 108c275 0 389 239 389 680c0 299 -121 640 -391 640c-277 0 -407 -244 -407 -674c0 -284 130 -646 409 -646z" />
    <glyph glyph-name="P" unicode="P" horiz-adv-x="1337" 
d="M71 0v116l181 38v1227l-169 27v145h317c85 0 211 14 349 14c315 0 567 -93 567 -458c0 -331 -273 -513 -592 -510c-88 1 -146 0 -188 -1v-445l255 -37v-116h-720zM536 750c56 -9 129 -11 182 -11c163 0 313 79 313 378c0 214 -134 311 -340 310c-47 -1 -118 -5 -155 -16
v-661z" />
    <glyph glyph-name="Q" unicode="Q" horiz-adv-x="1580" 
d="M75 753c11 507 352 809 736 814c427 5 703 -328 694 -778c-10 -434 -238 -722 -554 -797c70 -165 279 -147 365 -143c62 5 120 23 148 36l8 -177c-38 -43 -128 -84 -264 -84c-164 0 -338 65 -401 349c-7 0 -14 -1 -21 -1c-440 -4 -720 335 -711 781zM800 108
c275 0 389 239 389 680c0 299 -121 640 -391 640c-277 0 -407 -244 -407 -674c0 -284 130 -646 409 -646z" />
    <glyph glyph-name="R" unicode="R" horiz-adv-x="1479" 
d="M72 0v116l180 38v1233l-159 21v145h241c135 0 273 14 388 14c327 0 570 -103 570 -409c0 -225 -118 -382 -337 -457c182 -83 304 -499 421 -551l120 -34v-116h-364c-119 0 -258 667 -457 658l-138 -2v-505l198 -35v-116h-663zM537 799c49 -8 141 -10 196 -5
c144 8 277 84 277 333c0 163 -78 305 -327 301c-50 -1 -110 -1 -146 -14v-615z" />
    <glyph glyph-name="S" unicode="S" horiz-adv-x="1278" 
d="M144 63v369h123l80 -223c75 -89 194 -104 304 -104c122 0 267 62 267 241c0 151 -179 242 -366 344c-200 110 -407 236 -407 468c1 278 273 409 513 409c209 0 393 -44 442 -74v-308h-130l-87 202c-27 28 -123 55 -212 54c-107 0 -255 -46 -256 -203
c0 -150 146 -244 311 -334c219 -120 474 -240 473 -493c0 -274 -231 -437 -561 -437c-191 0 -411 43 -494 89z" />
    <glyph glyph-name="T" unicode="T" horiz-adv-x="1375" 
d="M327 0v116l237 36v1258l-313 -24l-69 -196l-142 -6l24 369h1275l-2 -364l-116 -13l-66 210l-306 24v-1257l240 -37v-116h-762z" />
    <glyph glyph-name="U" unicode="U" horiz-adv-x="1596" 
d="M193 641c0 244 1 507 2 755l-158 22v135h617v-135l-173 -22v-766c0 -424 186 -513 391 -513c225 0 354 166 353 558l-2 719l-174 24v135h518v-135l-150 -24v-718c0 -527 -263 -704 -584 -704c-451 0 -642 224 -640 669z" />
    <glyph glyph-name="V" unicode="V" horiz-adv-x="1464" 
d="M646 -17l-512 1416l-124 19v135h610v-134l-170 -22l269 -871l66 -247l61 245l245 874l-159 20v134h522v-134l-121 -19l-467 -1416h-220z" />
    <glyph glyph-name="W" unicode="W" horiz-adv-x="2203" 
d="M603 -17l-465 1415l-127 19v136h586v-135l-149 -20l268 -970c15 -61 29 -123 45 -184l46 179l199 806l-47 170l-143 18v136h602v-135l-167 -21l233 -977l41 -181l47 197l239 962l-160 19v136h541v-136l-149 -17l-421 -1418h-263l-254 899l-249 -898h-253z" />
    <glyph glyph-name="X" unicode="X" horiz-adv-x="1495" 
d="M20 0v115l176 38l420 609l-425 635l-155 21v135h643v-134l-159 -21l256 -455l273 456l-144 19v135h559v-135l-170 -20l-420 -578l446 -666l164 -39v-115h-647v114l161 37l-282 472l-269 -469l190 -39v-115h-617z" />
    <glyph glyph-name="Y" unicode="Y" horiz-adv-x="1425" 
d="M372 0v116l224 39v411l-471 833l-112 19v135h570v-134l-125 -20l279 -556l36 -102l39 108l244 546l-162 23c0 45 -1 90 -1 135h519v-135l-132 -34l-397 -800v-427l245 -41v-116h-756z" />
    <glyph glyph-name="Z" unicode="Z" horiz-adv-x="1372" 
d="M104 0l-35 117l795 1143l139 155l-634 -36l-114 -238l-133 25l39 387h1116l38 -124l-786 -1141l-124 -147l641 43l169 261l127 -33l-93 -412h-1145z" />
    <glyph glyph-name="bracketleft" unicode="[" horiz-adv-x="1004" 
d="M233 89v1412c0 220 78 274 260 274c100 0 200 -33 291 -63c0 -36 -1 -71 -1 -107h-301v-1647l301 -3c0 -37 2 -72 2 -108c-74 -32 -192 -60 -291 -60c-183 0 -261 48 -261 302z" />
    <glyph glyph-name="backslash" unicode="\" horiz-adv-x="822" 
d="M792 -363h-222l-540 1962h223z" />
    <glyph glyph-name="bracketright" unicode="]" horiz-adv-x="1004" 
d="M215 -153l3 108l301 3v1647h-301c0 36 -1 71 -1 107c91 30 191 63 290 63c182 0 260 -54 260 -274v-1412c0 -254 -77 -302 -260 -302c-99 0 -217 28 -292 60z" />
    <glyph glyph-name="asciicircum" unicode="^" horiz-adv-x="1423" 
d="M181 564l394 967h278l389 -967c-85 0 -172 -1 -257 -1l-287 703l-294 -703c-74 0 -149 1 -223 1z" />
    <glyph glyph-name="underscore" unicode="_" horiz-adv-x="1418" 
d="M-20 -193h1455v-196h-1455v196z" />
    <glyph glyph-name="grave" unicode="`" horiz-adv-x="884" 
d="M669 1338c-138 20 -349 172 -441 308l208 175l306 -409z" />
    <glyph glyph-name="a" unicode="a" horiz-adv-x="1191" 
d="M88 363c45 253 456 323 649 323v38c0 212 -95 256 -239 256c-132 0 -256 -50 -314 -82l-54 127c67 55 256 121 461 121c244 0 431 -81 431 -392l-1 -640h129v-89c-58 -38 -155 -51 -229 -51c-50 0 -153 12 -153 113v9c-68 -68 -165 -122 -308 -122
c-289 0 -410 185 -372 389zM368 328c0 -142 81 -200 225 -189c57 5 105 35 143 66c0 117 1 233 1 350c-144 0 -369 -44 -369 -227z" />
    <glyph glyph-name="b" unicode="b" horiz-adv-x="1300" 
d="M172 53v1367l-145 47v117l380 43l49 -17v-546c66 47 162 88 290 88c237 0 469 -148 469 -547c0 -333 -240 -633 -603 -633c-201 0 -411 52 -440 81zM456 182c19 -43 83 -82 187 -82c139 0 279 115 287 468c7 300 -152 424 -296 424c-83 0 -142 -24 -178 -43v-767z" />
    <glyph glyph-name="c" unicode="c" horiz-adv-x="1095" 
d="M87 531c-2 379 258 607 588 619c126 4 277 -17 334 -51v-284h-144l-67 162c-40 27 -101 34 -146 34c-154 0 -272 -134 -277 -386c-8 -340 168 -479 342 -479c113 0 232 31 284 67l45 -110c-94 -81 -256 -128 -436 -128c-337 0 -521 236 -523 556z" />
    <glyph glyph-name="d" unicode="d" horiz-adv-x="1334" 
d="M544 -26c-216 0 -459 168 -459 567c0 357 276 611 619 611c43 0 95 -2 150 -14v279l-218 48v117l445 46l57 -25v-1489h139v-93c-46 -25 -144 -51 -264 -51c-78 0 -133 23 -147 90c-52 -40 -153 -86 -322 -86zM627 132c31 -5 60 -5 88 -1c64 4 111 21 139 39v805
c-41 35 -99 53 -178 53c-100 0 -294 -76 -299 -423c-6 -295 114 -448 250 -473z" />
    <glyph glyph-name="e" unicode="e" horiz-adv-x="1198" 
d="M85 542c0 342 228 606 587 609c286 3 424 -164 434 -417c3 -83 -6 -145 -13 -197h-717c0 -4 1 -7 1 -10c15 -274 162 -380 347 -380c100 0 224 22 309 64l46 -108c-91 -78 -280 -132 -455 -129c-345 4 -539 217 -539 568zM379 679h443c9 114 13 257 -77 317
c-28 19 -65 30 -113 30c-158 0 -236 -154 -253 -347z" />
    <glyph glyph-name="f" unicode="f" horiz-adv-x="899" 
d="M88 0v114l179 27v803h-199v92l199 71v95c0 262 218 512 459 512c79 0 150 -10 184 -25v-221c-20 9 -114 45 -206 45c-97 0 -153 -17 -153 -215v-179h301v-175h-301v-805l236 -25v-114h-699z" />
    <glyph glyph-name="g" unicode="g" horiz-adv-x="1244" 
d="M94 -234c0 130 95 224 170 271c-110 40 -113 112 -113 182c0 58 60 166 132 227c-112 60 -181 161 -181 307c0 279 255 398 502 402c133 2 250 -25 333 -87c27 43 82 75 196 75h103v-202h-201c18 -44 28 -95 28 -153c0 -268 -215 -404 -485 -404c-69 0 -133 7 -190 22
c-10 -33 -15 -69 -15 -94c0 -77 44 -113 136 -116c62 -3 142 -3 245 -3c363 0 444 -133 444 -321c0 -229 -214 -403 -604 -403c-280 0 -500 79 -500 297zM604 521c143 0 191 106 191 248c0 172 -73 262 -214 262c-104 0 -200 -55 -200 -217c0 -159 54 -293 223 -293z
M344 -151c0 -168 131 -241 298 -241c195 0 306 50 306 199c0 103 -19 195 -255 195l-155 1c-59 0 -110 2 -153 7c-22 -34 -41 -82 -41 -161z" />
    <glyph glyph-name="h" unicode="h" horiz-adv-x="1416" 
d="M88 0v114l146 25v1278l-151 48v117l381 46l54 -20l-1 -471l-14 -133c120 104 275 142 380 142c280 0 337 -183 333 -528v-479l142 -25v-114l-581 1v113l155 26v414c0 251 -11 404 -206 404c-71 0 -145 -15 -208 -62v-757l119 -25v-114h-549z" />
    <glyph glyph-name="i" unicode="i" horiz-adv-x="720" 
d="M348 1347c-88 0 -172 60 -172 159c0 109 107 191 204 191c119 0 171 -73 171 -161c0 -115 -101 -189 -203 -189zM93 0v114l150 26v706l-132 113v80l345 107l67 -23v-985l152 -24v-114h-582z" />
    <glyph glyph-name="j" unicode="j" horiz-adv-x="669" 
d="M322 1359c-88 0 -171 60 -171 160c0 108 106 190 203 190c119 0 172 -73 172 -161c0 -115 -101 -189 -204 -189zM228 -4v850l-123 116v75l339 109l66 -24v-1156c0 -312 -143 -496 -372 -496c-64 0 -154 18 -165 27v166c23 -7 92 -11 117 -11c113 0 138 100 138 344z" />
    <glyph glyph-name="k" unicode="k" horiz-adv-x="1322" 
d="M87 0v114l147 27v1258l-169 56v118l401 55l52 -25v-895l-9 -146l376 395l-169 19v147h567v-147l-181 -18l-284 -279l376 -543l118 -21v-115h-545v115l104 26l-234 379l-129 -138l9 -129v-115l129 -24v-114h-559z" />
    <glyph glyph-name="l" unicode="l" horiz-adv-x="719" 
d="M86 0v114l141 25v1278l-146 48v117l380 46l50 -20v-1468l177 -26v-114h-602z" />
    <glyph glyph-name="m" unicode="m" horiz-adv-x="2126" 
d="M115 0v114l130 24v725l-139 88v98l326 97l61 -20v-145c86 83 241 160 379 166c144 7 260 -30 314 -152c90 75 230 149 382 151c258 3 357 -157 357 -478v-529l153 -25v-114h-562v114l125 25v489c0 255 -49 330 -221 326c-65 -2 -138 -28 -198 -66c9 -45 15 -104 15 -198
v-551l147 -25v-114h-576v114l146 26v499c0 255 -63 324 -235 314c-50 -4 -133 -30 -189 -74v-274c0 -80 -1 -337 -1 -466l139 -25v-114h-553z" />
    <glyph glyph-name="n" unicode="n" horiz-adv-x="1436" 
d="M115 0v114l130 23v726l-139 88v98l325 97l62 -20v-145c99 91 266 163 412 165c252 3 330 -152 330 -459v-549l149 -24v-114h-579v114l146 26v506c0 227 -33 310 -216 306c-50 -2 -143 -26 -206 -71v-742l134 -25v-114h-548z" />
    <glyph glyph-name="o" unicode="o" horiz-adv-x="1290" 
d="M86 570c5 388 278 578 577 582c349 4 543 -218 542 -569c-2 -392 -265 -606 -569 -607c-400 -1 -554 275 -550 594zM646 107c204 -2 257 210 257 463c0 224 -57 452 -250 454c-204 2 -265 -199 -265 -434c0 -209 65 -481 258 -483z" />
    <glyph glyph-name="p" unicode="p" horiz-adv-x="1338" 
d="M88 -396l136 26v1233l-139 88v98l325 97l60 -20v-123c32 45 155 148 336 148c232 0 447 -141 447 -556c0 -337 -253 -619 -601 -619c-59 0 -117 12 -156 21l10 -210v-157l206 -26v-115h-624v115zM506 199c25 -49 104 -78 192 -78c123 0 273 103 275 431
c2 345 -155 440 -283 440c-93 0 -155 -55 -185 -84l1 -378v-331z" />
    <glyph glyph-name="q" unicode="q" horiz-adv-x="1295" 
d="M85 549c0 337 260 603 631 603c74 0 187 -17 246 -51l130 45l47 -21v-1497l133 -23v-116h-615v116l198 23v325l10 136c-41 -40 -137 -115 -303 -115c-180 0 -477 82 -477 575zM657 148c90 0 160 30 198 64v742c-29 42 -90 66 -157 66c-215 0 -316 -159 -321 -427
c-7 -276 91 -445 280 -445z" />
    <glyph glyph-name="r" unicode="r" horiz-adv-x="947" 
d="M104 0v114l140 24v725l-139 88v98l325 97l61 -19v-178c41 109 212 197 312 197c45 0 87 -3 103 -10v-268c-38 25 -108 42 -174 42c-111 0 -171 -31 -203 -52v-714l255 -30v-114h-680z" />
    <glyph glyph-name="s" unicode="s" horiz-adv-x="1075" 
d="M129 64v248h132l53 -115c48 -44 104 -93 201 -98c132 -6 214 50 214 153c-1 93 -132 142 -271 207c-175 82 -339 184 -336 380c4 224 260 307 445 312c143 4 288 -30 360 -62v-248h-136l-51 119c-36 40 -87 75 -159 76c-97 0 -179 -37 -180 -125
c-2 -102 103 -158 223 -216c173 -79 376 -155 376 -367c0 -247 -223 -352 -492 -352c-125 0 -274 28 -379 88z" />
    <glyph glyph-name="t" unicode="t" horiz-adv-x="897" 
d="M217 309v654h-152v97c92 19 143 29 181 81c33 41 74 149 101 245h138v-267h339v-156h-330v-425c0 -336 20 -386 120 -386c60 0 152 19 187 41l43 -103c-62 -66 -223 -114 -364 -114c-194 0 -263 101 -263 333z" />
    <glyph glyph-name="u" unicode="u" horiz-adv-x="1314" 
d="M176 421v494l-98 53v102l328 76l45 -18v-693c0 -197 34 -290 180 -290c90 0 187 45 221 79v678l-126 54v114l361 76l43 -17v-1015h117v-94c-42 -27 -152 -51 -241 -51c-73 0 -126 29 -126 100v57c-93 -96 -241 -151 -347 -151c-294 0 -356 160 -357 446z" />
    <glyph glyph-name="v" unicode="v" horiz-adv-x="1243" 
d="M519 -13l-415 963l-101 24v145h518v-146l-104 -26l187 -499l73 -236l63 232l165 504l-124 24v147h458v-146l-111 -30l-387 -956h-222z" />
    <glyph glyph-name="w" unicode="w" horiz-adv-x="1777" 
d="M421 -14l-309 962l-109 24v147h510v-147l-115 -26l146 -526l43 -184l32 167l190 716h240l185 -716l43 -175l39 171l129 547l-128 26v147h457v-146l-133 -29l-275 -958h-265l-181 621l-42 186l-38 -186l-165 -621h-254z" />
    <glyph glyph-name="x" unicode="x" horiz-adv-x="1242" 
d="M3 0v114l158 28l319 396l-341 411l-133 23v147h573v-147l-113 -23l106 -154l90 -124l32 54l166 230l-134 17v147h510v-147l-170 -25l-310 -367l355 -440l129 -26v-114h-565v114l109 27c-62 89 -111 150 -115 156l-99 134l-26 -54l-159 -234l160 -29v-114h-542z" />
    <glyph glyph-name="y" unicode="y" horiz-adv-x="1197" 
d="M148 -295c29 -7 71 -15 119 -14c77 1 207 39 277 309h-49l-397 949l-94 23v147h532v-147l-127 -25l213 -592l37 -152l43 152l180 596l-145 21v147h475v-147l-105 -19l-379 -1001c-111 -293 -219 -461 -417 -478c-28 -3 -59 -4 -90 -3c-29 2 -62 6 -74 14z" />
    <glyph glyph-name="z" unicode="z" horiz-adv-x="1119" 
d="M108 0l-40 92l95 146l481 661l84 94l-408 -19l-64 -194h-143v339h910l40 -106l-524 -743l-113 -142l435 29l62 171h150l-17 -328h-948z" />
    <glyph glyph-name="braceleft" unicode="{" horiz-adv-x="1091" 
d="M290 32v536c0 59 -107 107 -209 123v180c106 18 209 48 209 114v542c0 197 84 250 238 250c109 0 225 -38 311 -61c0 -37 -1 -73 -1 -109h-300v-636c0 -51 -21 -85 -56 -113c-40 -33 -97 -54 -160 -82c66 -27 125 -53 166 -90c31 -28 50 -64 50 -111v-634h300
c0 -37 1 -74 1 -111c-86 -24 -191 -60 -300 -60c-154 0 -249 48 -249 262z" />
    <glyph glyph-name="bar" unicode="|" horiz-adv-x="995" 
d="M363 -186v1966h276v-1966h-276z" />
    <glyph glyph-name="braceright" unicode="}" horiz-adv-x="1057" 
d="M215 -59h300v634c0 47 20 83 51 111c40 37 100 63 165 90c-62 28 -120 49 -159 82c-35 28 -57 62 -57 113v636h-300c0 36 -1 72 -1 109c86 23 202 61 311 61c154 0 239 -53 239 -250v-542c0 -66 103 -96 209 -114v-180c-102 -16 -209 -64 -209 -123v-536
c0 -214 -96 -262 -250 -262c-109 0 -214 36 -300 60c0 37 1 74 1 111z" />
    <glyph glyph-name="asciitilde" unicode="~" horiz-adv-x="1291" 
d="M234 749l-87 110c34 87 187 221 344 221c167 0 218 -152 350 -152c93 0 172 63 215 102l87 -110c-33 -92 -180 -223 -342 -223c-166 0 -211 153 -353 153c-93 0 -170 -62 -214 -101z" />
    <glyph glyph-name="exclamdown" unicode="&#xa1;" horiz-adv-x="770" 
d="M379 1089c-85 0 -169 57 -169 158c0 109 106 192 199 192c118 0 172 -73 172 -164c0 -115 -102 -186 -202 -186zM188 -429l118 1296h154l110 -1296h-382z" />
    <glyph glyph-name="sterling" unicode="&#xa3;" horiz-adv-x="1502" 
d="M40 67c0 75 108 166 311 162c24 55 31 133 31 232v246h-168v176h168v77c0 305 202 608 541 608c112 0 216 -23 302 -96l-131 -240c-15 37 -123 188 -273 188c-101 0 -155 -93 -155 -429v-108h284v-176h-283v-46c0 -235 -31 -345 -119 -464c98 -9 173 -65 311 -77
c186 -22 272 80 272 172c0 63 -49 116 -86 142l117 227c119 -31 213 -151 219 -293c7 -131 -54 -392 -422 -405c-300 -13 -436 135 -535 124c-53 -64 -137 -115 -243 -117c-70 -2 -141 24 -141 97z" />
    <glyph glyph-name="currency" unicode="&#xa4;" horiz-adv-x="1467" 
d="M184 267l198 198c-42 64 -66 141 -66 224s24 160 67 224l-197 200l125 127l201 -204c62 37 134 59 212 59c81 0 157 -24 221 -64l213 210l127 -128l-213 -210c38 -62 61 -135 61 -214c0 -80 -23 -155 -62 -217l200 -202l-127 -126l-201 201c-63 -40 -138 -62 -219 -62
c-78 0 -150 21 -212 58l-201 -200zM518 689c0 -114 94 -215 207 -215c114 0 205 101 205 215s-91 214 -205 214c-113 0 -207 -100 -207 -214z" />
    <glyph glyph-name="brokenbar" unicode="&#xa6;" horiz-adv-x="995" 
d="M363 898v882h276v-882h-276zM363 -185v882h276v-882h-276z" />
    <glyph glyph-name="dieresis" unicode="&#xa8;" horiz-adv-x="1062" 
d="M768 1363c-80 0 -156 47 -156 132c0 88 93 153 181 153c112 0 156 -57 156 -131c0 -95 -87 -154 -181 -154zM267 1363c-82 0 -154 46 -154 130c0 90 91 155 180 155c112 0 159 -58 159 -132c0 -94 -90 -153 -185 -153z" />
    <glyph glyph-name="copyright" unicode="&#xa9;" horiz-adv-x="2081" 
d="M1041 219c-493 0 -860 375 -860 850c0 476 384 851 860 851c473 0 859 -369 859 -851c0 -462 -386 -850 -859 -850zM1040 359c385 0 698 315 698 710c0 398 -313 711 -698 711c-387 0 -697 -313 -697 -711c0 -395 315 -710 697 -710zM1045 585c-305 0 -464 199 -464 476
c0 289 231 515 506 521c115 2 233 -10 286 -53v-265h-158l-60 142c-21 16 -53 24 -116 25c-126 0 -189 -120 -188 -316c0 -217 132 -340 280 -340c67 0 162 13 221 49l37 -103c-62 -77 -211 -136 -344 -136z" />
    <glyph glyph-name="guillemotleft" unicode="&#xab;" horiz-adv-x="2043" 
d="M1037 485v244l699 385l71 -114l-479 -386l479 -369l-71 -123zM236 485v244l699 385l71 -114l-479 -386l479 -369l-71 -123z" />
    <glyph glyph-name="guilsinglleft" unicode="&#x2039;" horiz-adv-x="1242" 
d="M236 485v244l699 385l71 -114l-479 -386l479 -369l-71 -123z" />
    <glyph glyph-name="registered" unicode="&#xae;" horiz-adv-x="2081" 
d="M1041 219c-493 0 -860 375 -860 850c0 476 384 851 860 851c473 0 859 -369 859 -851c0 -462 -386 -850 -859 -850zM1040 359c385 0 698 315 698 710c0 398 -313 711 -698 711c-387 0 -697 -313 -697 -711c0 -395 315 -710 697 -710zM611 605v105l84 34v679l-84 25v119
h195c68 -3 143 3 273 4c246 0 376 -78 380 -248c0 -124 -62 -274 -259 -290c189 -47 180 -313 321 -313v-114h-238c-138 0 -107 331 -304 390h-25v-264l80 -22v-105h-423zM954 1126c31 -8 54 -8 99 -8c76 -1 145 56 145 162c0 118 -58 157 -184 157c-23 0 -38 -2 -60 -9
v-302z" />
    <glyph glyph-name="macron" unicode="&#xaf;" horiz-adv-x="997" 
d="M231 1386v201h551v-201h-551z" />
    <glyph glyph-name="degree" unicode="&#xb0;" horiz-adv-x="810" 
d="M404 922c-186 0 -340 153 -340 336c0 184 154 336 340 336c189 0 341 -155 341 -336c0 -183 -152 -336 -341 -336zM404 1075c102 0 178 78 178 184c0 101 -78 185 -178 185c-105 0 -178 -79 -178 -185c0 -104 75 -184 178 -184z" />
    <glyph glyph-name="plusminus" unicode="&#xb1;" horiz-adv-x="1302" 
d="M546 333v213l8 178l-159 -9h-215v213h215l159 -11l-8 180v219h215v-219l-9 -180l147 11h228v-213h-228l-147 9l9 -178v-213h-215zM186 13v197h925v-197h-925z" />
    <glyph glyph-name="acute" unicode="&#xb4;" horiz-adv-x="886" 
d="M376 1338l-72 74l305 408l208 -175c-89 -139 -296 -255 -441 -307z" />
    <glyph glyph-name="paragraph" unicode="&#xb6;" horiz-adv-x="1497" 
d="M400 0v118l206 41v506c-270 0 -462 139 -462 451c0 267 154 457 542 457c94 0 436 -17 553 -20h195v-140l-188 -47v-1207l180 -41v-118h-402l-2 1386h-185v-1386h-437z" />
    <glyph glyph-name="periodcentered" unicode="&#xb7;" horiz-adv-x="744" 
d="M356 672c-86 0 -170 58 -170 158c0 110 107 192 200 192c118 0 172 -73 172 -163c0 -115 -103 -187 -202 -187z" />
    <glyph glyph-name="cedilla" unicode="&#xb8;" horiz-adv-x="648" 
d="M204 6h150c-5 -33 -5 -93 -1 -134c176 -10 232 -119 232 -192c0 -132 -106 -202 -257 -209c-121 -6 -193 15 -235 26v128c32 -8 100 -14 120 -14c57 0 100 16 100 79c0 48 -37 76 -103 76c-16 0 -50 -3 -54 -4c1 65 24 188 48 244z" />
    <glyph glyph-name="guillemotright" unicode="&#xbb;" horiz-adv-x="2043" 
d="M1034 236l478 385l-478 370l71 123l699 -363v-245l-699 -384zM303 122l-70 114l478 385l-478 370l70 123l700 -363v-245z" />
    <glyph glyph-name="questiondown" unicode="&#xbf;" horiz-adv-x="1041" 
d="M470 1099c-85 0 -169 58 -169 159c0 109 106 192 199 192c118 0 172 -74 172 -164c0 -115 -102 -187 -202 -187zM120 296c20 98 351 165 414 275c34 77 -53 255 -91 337h188c95 -86 171 -233 174 -323c3 -191 -498 -236 -526 -331c2 -289 277 -433 458 -436
c92 -2 165 5 201 29l8 -220c-19 -27 -133 -51 -224 -49c-586 16 -666 503 -602 718z" />
    <glyph glyph-name="multiply" unicode="&#xd7;" horiz-adv-x="1344" 
d="M334 321l-151 155l353 339l-353 338l150 156l338 -358l338 358l150 -156l-353 -338l353 -339l-149 -155l-338 358z" />
    <glyph glyph-name="germandbls" unicode="&#xdf;" horiz-adv-x="1416" 
d="M55 0v119l156 42v710c0 511 300 697 603 697c149 0 356 -65 356 -285c0 -238 -244 -273 -244 -444c0 -219 461 -156 461 -487c0 -230 -158 -374 -442 -374c-77 0 -217 7 -271 31v187c48 -32 150 -82 249 -82c100 0 193 47 193 174c0 222 -435 132 -435 452
c0 183 231 261 231 483c0 113 -50 203 -164 203c-176 0 -254 -122 -254 -491v-935h-439z" />
    <glyph glyph-name="eth" unicode="&#xf0;" horiz-adv-x="1283" 
d="M80 502c0 374 266 551 547 551c120 0 234 -51 298 -116c-35 175 -137 328 -268 440l-167 -147l-102 82l159 145c-75 47 -155 81 -235 100l26 131c112 -25 220 -66 319 -123l175 158l107 -91l-164 -143c246 -186 417 -478 417 -851c0 -400 -179 -663 -571 -665
c-319 -3 -541 216 -541 529zM375 516c0 -225 117 -410 272 -410c150 0 264 160 264 456c0 25 1 70 -8 111c-19 91 -110 243 -267 243c-192 0 -261 -146 -261 -400z" />
    <glyph glyph-name="endash" unicode="&#x2013;" horiz-adv-x="1454" 
d="M181 724v198h1092v-198h-1092z" />
    <glyph glyph-name="emdash" unicode="&#x2014;" horiz-adv-x="2410" 
d="M181 725v197h2048v-197h-2048z" />
    <glyph glyph-name="quoteleft" unicode="&#x2018;" horiz-adv-x="858" 
d="M441 838c-184 58 -246 262 -244 384c4 274 210 460 382 526l79 -79v-36c-88 -32 -188 -174 -188 -302c0 -96 72 -195 151 -203v-64z" />
    <glyph glyph-name="quoteright" unicode="&#x2019;" horiz-adv-x="858" 
d="M279 848l-79 79v35c88 32 189 175 189 303c0 95 -73 195 -153 203v63l180 226c185 -58 247 -261 245 -383c-4 -274 -211 -460 -382 -526z" />
    <glyph glyph-name="quotesinglbase" unicode="&#x201a;" horiz-adv-x="858" 
d="M236 80v63l180 226c185 -58 247 -261 245 -384c-4 -273 -211 -442 -382 -508l-79 79v35c88 32 188 158 188 286c0 96 -72 195 -152 203z" />
    <glyph glyph-name="quotedblleft" unicode="&#x201c;" horiz-adv-x="1435" 
d="M1018 837c-184 59 -249 263 -245 384c4 274 212 460 381 526l81 -79v-35c-89 -32 -189 -175 -189 -303c0 -96 72 -195 152 -203v-63zM441 837c-185 59 -247 263 -244 384c3 274 211 460 382 526l79 -79v-35c-89 -32 -188 -175 -188 -303c0 -96 72 -195 151 -203v-63z" />
    <glyph glyph-name="quotedblright" unicode="&#x201d;" horiz-adv-x="1446" 
d="M867 846l-81 78v36c90 31 189 175 189 303c0 95 -71 194 -151 202v64l179 226c186 -58 248 -261 246 -384c-4 -274 -212 -460 -382 -525zM280 846l-80 78v36c89 31 189 175 189 303c0 95 -73 194 -152 202v64l179 226c185 -58 249 -261 246 -384
c-4 -274 -212 -460 -382 -525z" />
    <glyph glyph-name="quotedblbase" unicode="&#x201e;" horiz-adv-x="1417" 
d="M796 83v63l180 226c185 -58 248 -262 245 -384c-4 -273 -212 -459 -382 -525l-81 79v35c91 32 189 174 189 302c0 96 -72 196 -151 204zM237 83v63l181 226c184 -58 248 -262 244 -384c-4 -273 -211 -459 -381 -525l-81 79v35c90 32 189 174 189 302
c0 96 -72 196 -152 204z" />
    <glyph glyph-name="dagger" unicode="&#x2020;" horiz-adv-x="1035" 
d="M440 272l-50 646l20 194l-298 -23l1 216l306 -29l-32 245l-2 127h265l-2 -127l-31 -245l305 29l1 -216l-298 23l20 -194l-61 -646h-144z" />
    <glyph glyph-name="bullet" unicode="&#x2022;" horiz-adv-x="885" 
d="M429 471c-152 0 -280 132 -268 283c11 157 144 280 296 280s279 -123 268 -280c-12 -157 -143 -283 -296 -283z" />
    <glyph glyph-name="guilsinglright" unicode="&#x203a;" horiz-adv-x="1242" 
d="M303 122l-70 114l478 385l-478 370l70 123l700 -363v-245z" />
    <glyph glyph-name="quotedbl" unicode="&#x22;" horiz-adv-x="1261" 
d="M798 960l-69 822h304l-69 -822h-166zM297 960l-70 822h305l-69 -822h-166z" />
    <glyph glyph-name="exclam" unicode="!" horiz-adv-x="767" 
d="M298 534l-110 1246h382l-118 -1246h-154zM195 131c0 109 106 192 199 192c118 0 172 -74 172 -164c0 -115 -102 -187 -202 -187c-85 0 -169 58 -169 159z" />
    <glyph glyph-name="logicalnot" unicode="&#xac;" horiz-adv-x="1323" 
d="M181 745v176h961v-564h-249v388h-712z" />
    <glyph glyph-name="yen" unicode="&#xa5;" horiz-adv-x="1474" 
d="M363 0v116l220 39v207h-388v149h388v189l-13 21h-375v150h282l-324 527l-123 20v135h575v-134l-123 -19l215 -403l54 -126h20l63 134l195 392l-150 21v135h517v-135l-142 -36l-297 -511h302v-150h-389l-1 -2v-208h390v-149h-390v-205l235 -41v-116h-741z" />
    <glyph glyph-name="divide" unicode="&#xf7;" horiz-adv-x="1348" 
d="M677 1105c-85 0 -166 58 -166 158c0 109 104 189 196 189c118 0 169 -70 169 -160c0 -116 -99 -187 -199 -187zM181 724v198h987v-198h-987zM510 350c0 109 104 189 197 189c118 0 169 -71 169 -161c0 -115 -100 -187 -199 -187c-86 0 -167 58 -167 159z" />
    <glyph glyph-name="daggerdbl" unicode="&#x2021;" horiz-adv-x="1035" 
d="M112 450l1 216l305 -29l-28 280l20 195l-298 -23l1 216l305 -29l-31 244l-2 128h265l-2 -128l-31 -244l305 29l1 -216l-298 23l20 -195l-28 -280l305 29l1 -216l-298 24l20 -195l-62 -646h-141l-52 646l20 195z" />
    <glyph glyph-name="uni200A" unicode="&#x200a;" horiz-adv-x="205" 
 />
    <glyph glyph-name="uni2009" unicode="&#x2009;" horiz-adv-x="410" 
 />
    <glyph glyph-name="uni2008" unicode="&#x2008;" horiz-adv-x="723" 
 />
    <glyph glyph-name="uni2007" unicode="&#x2007;" horiz-adv-x="1288" 
 />
    <glyph glyph-name="uni2006" unicode="&#x2006;" horiz-adv-x="342" 
 />
    <glyph glyph-name="uni2005" unicode="&#x2005;" horiz-adv-x="512" 
 />
    <glyph glyph-name="uni2004" unicode="&#x2004;" horiz-adv-x="682" 
 />
    <glyph glyph-name="uni2003" unicode="&#x2003;" horiz-adv-x="2048" 
 />
    <glyph glyph-name="uni2000" unicode="&#x2000;" horiz-adv-x="3072" 
 />
    <glyph glyph-name="uni2001" unicode="&#x2001;" horiz-adv-x="2048" 
 />
    <glyph glyph-name="cent" unicode="&#xa2;" horiz-adv-x="1172" 
d="M514 -14c-263 48 -405 264 -407 545c-2 350 219 570 513 612l13 219h163l-12 -213c101 -5 201 -24 245 -50v-284h-144l-67 162c-40 27 -101 34 -146 34c-154 0 -272 -134 -277 -386c-8 -340 168 -479 342 -479c113 0 232 31 284 67l45 -110c-86 -74 -229 -119 -390 -127
l-10 -193h-164z" />
    <glyph glyph-name="uni2002" unicode="&#x2002;" horiz-adv-x="1024" 
 />
    <glyph glyph-name="circumflex" unicode="&#x2c6;" horiz-adv-x="1063" 
d="M252 1335l-107 62l272 378h225l271 -377l-119 -62l-265 232z" />
    <glyph glyph-name="caron" unicode="&#x2c7;" horiz-adv-x="1062" 
d="M419 1335l-271 378l111 62l273 -233l269 232l114 -61l-271 -378h-225z" />
    <glyph glyph-name="breve" unicode="&#x2d8;" horiz-adv-x="1274" 
d="M637 1359c-230 0 -357 173 -357 336h161c11 -29 41 -160 197 -160c153 0 186 131 199 161h157c0 -163 -138 -337 -357 -337z" />
    <glyph glyph-name="dotaccent" unicode="&#x2d9;" horiz-adv-x="651" 
d="M309 1342c-82 0 -155 48 -155 131c0 91 92 157 181 157c112 0 159 -59 159 -133c0 -95 -90 -155 -185 -155z" />
    <glyph glyph-name="ring" unicode="&#x2da;" horiz-adv-x="609" 
d="M305 1300c-151 0 -276 117 -276 260c0 144 125 261 276 261c152 0 276 -120 276 -261c0 -143 -124 -260 -276 -260zM305 1427c74 0 132 57 132 133c0 72 -58 133 -132 133c-77 0 -133 -59 -133 -133c0 -76 56 -133 133 -133z" />
    <glyph glyph-name="tilde" unicode="&#x2dc;" horiz-adv-x="996" 
d="M160 1390l-72 87c46 107 197 194 294 194c140 0 189 -116 279 -116c74 0 131 44 174 82l73 -87c-47 -107 -192 -196 -290 -196c-139 0 -192 118 -283 118c-67 0 -131 -45 -175 -82z" />
    <glyph glyph-name="hungarumlaut" unicode="&#x2dd;" horiz-adv-x="949" 
d="M712 1330l-100 79l302 416l186 -145c-84 -109 -273 -297 -388 -350zM179 1330l-104 79l305 416l180 -145c-80 -109 -267 -289 -381 -350z" />
    <glyph glyph-name="ogonek" unicode="&#x2db;" horiz-adv-x="743" 
d="M189 0l98 9l111 -9c-137 -49 -273 -163 -283 -232c-18 -92 30 -107 91 -110c81 -4 174 40 229 62l29 -114c-97 -71 -226 -130 -407 -125c-151 3 -204 93 -207 174c-2 107 141 268 339 345z" />
    <glyph glyph-name="onehalf" unicode="&#xbd;" horiz-adv-x="2686" 
d="M822 -287l787 2168l178 -52l-789 -2172zM273 718v115l265 35v576c-69 -10 -172 -28 -249 -42l-29 130c131 28 433 152 481 191l69 -15l-1 -841l246 -34v-115h-782zM1521 137c146 78 627 349 605 538c-8 95 -81 149 -195 149c-122 0 -249 -86 -320 -165l-79 104
c61 105 253 245 457 245c299 0 415 -137 415 -286c0 -239 -266 -391 -616 -590l496 65l108 145l137 -43l-63 -301h-891z" />
    <glyph glyph-name="onesuperior" unicode="&#xb9;" horiz-adv-x="1107" 
d="M206 718v115l265 35v576c-69 -10 -172 -28 -249 -42l-29 130c131 28 433 152 481 191l68 -15l-1 -841l246 -34v-115h-781z" />
    <glyph glyph-name="twosuperior" unicode="&#xb2;" horiz-adv-x="1246" 
d="M195 720l-54 139c147 78 628 349 605 538c-7 95 -80 149 -195 149c-122 0 -248 -86 -320 -165l-79 104c62 105 253 245 457 245c299 0 415 -137 415 -286c0 -239 -266 -391 -616 -590l496 65l108 145l137 -43l-62 -301h-892z" />
    <glyph glyph-name="onequarter" unicode="&#xbc;" horiz-adv-x="2686" 
d="M822 -281l787 2167l178 -59l-789 -2170zM273 718v115l265 35v576c-69 -10 -172 -28 -249 -42l-29 130c131 28 433 152 481 191l69 -15l-1 -841l246 -34v-115h-782zM1444 267l543 814h100l124 -132l-480 -570l-77 -95l358 34l8 221l218 25v-225l231 22l1 -219h-232v-319
h-243l11 319h-511z" />
    <glyph glyph-name="threequarters" unicode="&#xbe;" horiz-adv-x="2782" 
d="M822 -287l787 2168l178 -52l-789 -2172zM290 664v131c67 -22 177 -39 245 -36c179 7 277 76 288 175c4 68 -26 164 -166 189l-216 -49l2 144c187 47 286 107 319 189c7 20 8 45 6 69c-3 69 -103 93 -162 92c-84 0 -206 -33 -293 -90l-61 107c68 61 246 129 399 134
c270 8 376 -135 376 -242c0 -112 -57 -197 -209 -260c233 -11 275 -202 275 -256c0 -181 -159 -349 -486 -349c-134 0 -243 24 -317 52zM1444 267l532 814h111l124 -132l-480 -570l-77 -95l358 34l8 221l218 25v-225l231 22l1 -219h-232v-319h-243l11 319h-511z" />
    <glyph glyph-name="threesuperior" unicode="&#xb3;" horiz-adv-x="1140" 
d="M210 664v131c67 -22 177 -39 245 -36c179 7 277 76 288 175c4 68 -26 164 -166 189l-216 -49l2 144c187 47 286 107 319 189c8 20 8 45 6 69c-3 69 -103 93 -162 92c-84 0 -206 -33 -293 -90l-61 107c68 61 246 129 399 134c270 8 376 -135 376 -242
c0 -112 -57 -197 -209 -260c233 -11 275 -202 275 -256c0 -181 -159 -349 -485 -349c-135 0 -244 24 -318 52z" />
    <glyph glyph-name="grave.cap" horiz-adv-x="1062" 
d="M560 1599c-79 8 -318 65 -436 148l173 173l344 -237z" />
    <glyph glyph-name="dieresis.cap" horiz-adv-x="1062" 
d="M774 1633c-81 0 -157 48 -157 133c0 88 94 154 182 154c112 0 156 -58 156 -132c0 -95 -88 -155 -181 -155zM262 1632c-83 0 -155 48 -155 132c0 90 91 156 180 156c112 0 160 -59 160 -133c0 -94 -91 -155 -185 -155z" />
    <glyph glyph-name="commabelow" horiz-adv-x="741" 
d="M206 -178l128 138c139 -16 238 -128 238 -270c0 -176 -168 -306 -252 -330l-97 51v23c50 34 98 102 98 186c0 73 -61 135 -115 135v67z" />
    <glyph glyph-name="commaaccent" horiz-adv-x="741" 
d="M206 -178l128 138c139 -16 238 -128 238 -270c0 -176 -168 -306 -252 -330l-97 51v23c50 34 98 102 98 186c0 73 -61 135 -115 135v67z" />
    <glyph glyph-name="circumflex.cap" horiz-adv-x="1062" 
d="M257 1605l-97 62l266 253h213l264 -252l-101 -63l-268 146z" />
    <glyph glyph-name="caron.cap" horiz-adv-x="910" 
d="M424 1605l-261 252l101 63l266 -145l274 145l96 -61l-262 -254h-214z" />
    <glyph glyph-name="breve.cap" horiz-adv-x="661" 
d="M331 1593c-230 0 -353 164 -353 327h156c12 -29 42 -150 198 -150c153 0 186 120 199 150h152c0 -163 -134 -327 -352 -327z" />
    <glyph glyph-name="ring.cap" horiz-adv-x="708" 
d="M353 1437c-145 0 -277 93 -277 241c0 147 121 242 277 242c158 0 279 -98 279 -242c0 -148 -132 -241 -279 -241zM353 1555c72 0 129 51 129 122c0 69 -57 124 -129 124c-74 0 -129 -53 -129 -124s55 -122 129 -122z" />
    <glyph glyph-name="ogonek.cap" horiz-adv-x="743" 
d="M194 0l92 6l111 -6c-134 -40 -271 -165 -281 -230c-18 -84 23 -111 89 -112c52 -1 120 22 168 44l30 -114c-87 -73 -213 -107 -347 -107s-204 82 -207 176c-2 103 139 269 345 343z" />
    <glyph glyph-name="tilde.cap" horiz-adv-x="1063" 
d="M189 1653l-72 75c46 108 197 192 294 192c140 0 189 -111 279 -111c74 0 131 35 174 75l73 -87c-47 -107 -192 -182 -290 -182c-139 0 -192 115 -283 115c-64 0 -131 -38 -175 -77z" />
    <glyph glyph-name="hungarumlaut.cap" horiz-adv-x="920" 
d="M609 1498l-72 72l292 350l185 -173c-126 -149 -322 -224 -405 -249zM101 1498l-73 72l293 350l183 -173c-126 -149 -321 -224 -403 -249z" />
    <glyph glyph-name="percent" unicode="%" horiz-adv-x="1978" 
d="M547 -100l646 1797h205l-647 -1797h-204zM445 692c-212 -3 -343 166 -343 361c0 239 178 371 375 374c240 4 342 -162 342 -365c0 -238 -177 -367 -374 -370zM466 818c89 0 141 91 141 237c0 148 -64 247 -145 247c-90 0 -148 -93 -148 -241c0 -135 71 -243 152 -243z
M1145 525c0 239 178 371 375 374c239 4 342 -162 342 -365c0 -238 -178 -368 -374 -370c-212 -2 -343 166 -343 361zM1360 533c0 -135 71 -243 153 -243c88 0 141 91 141 237c0 148 -64 247 -145 247c-90 0 -149 -93 -149 -241z" />
    <glyph glyph-name="foundryicon" horiz-adv-x="1939" 
d="M618 1701c-38 0 -70 26 -70 58c0 34 41 112 70 161c45 -65 72 -127 72 -161c0 -32 -32 -58 -72 -58zM605 128c0 46 32 60 53 60c22 0 50 -16 50 -60c0 -108 23 -141 92 -141c53 0 85 34 85 190h22v492h-35c0 23 15 41 35 48v192h-775c0 274 348 515 773 507l5 160h40
l9 -160c426 8 773 -233 773 -507h-768v-732l21 1c0 -197 -57 -286 -185 -286c-120 0 -195 57 -195 236z" />
    <glyph glyph-name="dotlessi" unicode="&#x131;" horiz-adv-x="720" 
d="M93 0v114l150 26v706l-132 113v80l345 110l67 -23v-988l150 -24v-114h-580z" />
    <glyph glyph-name="oslash" unicode="&#xf8;" horiz-adv-x="1290" 
d="M352 -171l59 182c-234 85 -328 308 -325 559c5 388 278 578 577 582c43 0 83 -3 122 -9l53 165l98 -29l-52 -161c208 -75 322 -267 321 -535c-2 -392 -265 -606 -569 -607c-44 0 -85 3 -124 10l-59 -186zM479 205l257 801c-24 11 -52 17 -83 18
c-204 2 -265 -199 -265 -434c0 -131 25 -287 91 -385zM564 126c24 -12 52 -19 82 -19c204 -2 257 210 257 463c0 137 -21 275 -82 363z" />
    <glyph glyph-name="aogonek" unicode="&#x105;" horiz-adv-x="1191" 
d="M88 363c45 253 456 323 649 323v38c0 212 -95 256 -239 256c-132 0 -256 -50 -314 -82l-54 127c67 55 256 121 461 121c244 0 431 -81 431 -392l-1 -640h129v-89c-1 -1 -1 -1 -2 -1l6 1c-129 -74 -259 -176 -252 -281c5 -110 134 -105 252 -71v-122
c-145 -107 -479 -103 -489 114c-8 138 118 253 221 311c-52 7 -118 30 -118 111v9c-68 -68 -165 -122 -308 -122c-289 0 -410 185 -372 389zM368 328c0 -142 81 -200 225 -189c57 5 105 35 143 66c0 117 1 233 1 350c-144 0 -369 -44 -369 -227z" />
    <glyph glyph-name="Thorn" unicode="&#xde;" horiz-adv-x="1342" 
d="M78 0v116l174 38v1243l-195 21v135h669v-135l-189 -22v-177c74 9 161 20 238 20c328 0 546 -122 546 -418c0 -329 -250 -506 -588 -503c-87 1 -155 3 -196 6v-171l260 -37v-116h-719zM537 463c48 -7 113 -8 170 -8c178 0 319 106 319 352c0 199 -140 292 -346 287
c-67 -2 -107 -8 -143 -16v-615z" />
    <glyph glyph-name="ordfeminine" unicode="&#xaa;" horiz-adv-x="1080" 
d="M386 734c-113 0 -258 80 -258 247c0 241 327 290 530 290v21c0 134 -79 149 -193 149c-99 0 -196 -26 -237 -56l-46 122c47 37 205 85 368 85c192 0 360 -36 359 -296l-2 -430h85v-93c-49 -14 -146 -41 -217 -41c-55 0 -98 12 -108 90c-48 -43 -137 -88 -281 -88z
M478 882c49 -8 112 3 179 30l-1 2l1 253c-101 -4 -281 -32 -281 -156c0 -67 39 -118 102 -129z" />
    <glyph glyph-name="ordmasculine" unicode="&#xba;" horiz-adv-x="1095" 
d="M533 734c-253 -1 -428 149 -424 432c5 311 249 424 444 427c277 4 436 -171 433 -437c-4 -309 -255 -421 -453 -422zM545 854c116 0 178 52 178 294c0 203 -71 328 -172 327c-91 -2 -180 -63 -180 -303c0 -206 81 -319 174 -318z" />
    <glyph glyph-name="section" unicode="&#xa7;" horiz-adv-x="1342" 
d="M178 181h119l83 -200c63 -91 173 -105 272 -105c128 0 259 48 259 186c0 316 -754 301 -754 730c0 108 59 241 142 314c-72 64 -121 143 -121 247c0 277 285 419 526 419c186 0 326 -37 387 -72v-294h-117l-103 180c-26 31 -94 54 -188 54c-88 0 -234 -64 -234 -230
c-2 -298 729 -264 727 -711c0 -118 -45 -237 -114 -312c74 -63 124 -140 124 -243c0 -309 -251 -409 -535 -409c-206 0 -413 45 -473 80v366zM403 849c0 -178 279 -248 504 -363c17 41 31 92 31 131c0 190 -275 269 -494 391c-23 -44 -41 -102 -41 -159z" />
    <glyph glyph-name="acute.cap" horiz-adv-x="973" 
d="M401 1599l-80 84l355 237l173 -173c-118 -83 -368 -140 -448 -148z" />
    <glyph glyph-name="AE" unicode="&#xc6;" horiz-adv-x="1938" 
d="M4 0v117l130 32l566 1404h1023l33 -317l-152 -1l-57 158l-508 18l160 -526l310 7l34 153h130v-463h-130l-36 144l-263 11l185 -606l234 25l106 196l136 -38l-48 -314h-899v116l160 37l-71 235h-609l-88 -235l172 -36v-117h-518zM499 549h500l-178 595l-35 167z" />
    <glyph glyph-name="dollar" unicode="$" horiz-adv-x="1324" 
d="M147 63v369h123l80 -223c75 -89 194 -104 304 -104c122 0 267 62 267 241c0 151 -179 242 -366 344c-200 110 -407 236 -407 468c1 251 222 382 442 405l6 191h189l-5 -192c157 -12 283 -45 323 -69v-308h-130l-87 202c-27 28 -123 55 -212 54c-107 0 -255 -46 -256 -203
c0 -150 146 -244 311 -334c219 -120 474 -240 473 -493c0 -257 -203 -416 -500 -435l-8 -213h-195l8 217c-151 14 -296 47 -360 83z" />
    <glyph glyph-name="Oslash" unicode="&#xd8;" horiz-adv-x="1580" 
d="M405 -168l77 200c-260 116 -414 389 -407 721c11 507 352 809 736 814c78 1 152 -10 219 -30l54 155l109 -39l-57 -160c236 -121 375 -383 369 -704c-11 -506 -320 -814 -719 -817c-69 0 -135 7 -195 23l-78 -202zM562 221l400 1157c-47 32 -102 50 -164 50
c-277 0 -407 -244 -407 -674c0 -185 55 -404 171 -533zM657 144c42 -23 90 -36 143 -36c275 0 389 239 389 680c0 179 -44 373 -136 500z" />
    <glyph glyph-name="Lslash" unicode="&#x141;" horiz-adv-x="1269" 
d="M99 0v116l153 35v399l-172 -67s2 198 1 200c-1 0 69 30 171 73v626l-149 19v152h618v-152l-180 -20l-1 -505l470 195v-223l-470 -185v-524l436 34l148 238l123 -51l-67 -360h-1081z" />
    <glyph glyph-name="Euro" unicode="&#x20ac;" horiz-adv-x="1564" 
d="M32 542v150h186v26c0 58 4 116 12 172h-168v152h201c89 299 313 525 701 525c208 0 338 -79 440 -71l-17 -340h-127l-63 180c-73 53 -169 78 -291 78c-219 0 -320 -138 -356 -372h497v-152h-512c-2 -37 -2 -75 -2 -115c0 -28 0 -56 1 -83h490v-150h-478
c32 -251 133 -425 393 -426c110 -1 170 20 229 62c55 53 69 141 92 215c48 0 96 -1 144 -1v-329c-123 13 -207 -91 -513 -91c-367 0 -601 225 -659 570h-200z" />
    <glyph glyph-name="ae" unicode="&#xe6;" horiz-adv-x="1853" 
d="M88 363c45 253 456 323 649 323c0 13 0 63 -1 74c-9 181 -103 217 -238 217c-132 0 -256 -50 -314 -82l-54 130c67 55 256 121 461 121c149 0 279 -31 354 -131c97 84 227 135 382 136c286 3 423 -164 433 -417c3 -83 -6 -145 -13 -197h-721c13 -284 165 -390 353 -390
c99 0 233 25 319 66l46 -110c-92 -78 -290 -132 -466 -129c-176 2 -312 58 -403 158c-79 -90 -220 -158 -415 -158c-289 0 -410 185 -372 389zM1026 679h451c9 130 19 304 -133 332c-37 10 -76 8 -117 -5c-102 -28 -186 -131 -201 -327zM368 328c0 -142 81 -200 225 -189
c57 4 113 30 143 54c0 121 1 241 1 362c-144 0 -369 -44 -369 -227z" />
    <glyph glyph-name="mu" unicode="&#xb5;" horiz-adv-x="1499" 
d="M247 -373v1283l-106 52v106l339 78l46 -18v-707c0 -198 62 -266 197 -266c89 0 176 39 203 63v684l-126 54v114l361 76l44 -17v-1015h116v-94c-41 -27 -152 -51 -241 -51c-72 0 -126 29 -126 100v51c-93 -97 -207 -145 -313 -145c-43 0 -81 5 -115 14v-362h-279z" />
    <glyph glyph-name="mu" unicode="&#x3bc;" horiz-adv-x="1499" 
d="M247 -373v1283l-106 52v106l339 78l46 -18v-707c0 -198 62 -266 197 -266c89 0 176 39 203 63v684l-126 54v114l361 76l44 -17v-1015h116v-94c-41 -27 -152 -51 -241 -51c-72 0 -126 29 -126 100v51c-93 -97 -207 -145 -313 -145c-43 0 -81 5 -115 14v-362h-279z" />
    <glyph glyph-name="eogonek" unicode="&#x119;" horiz-adv-x="1198" 
d="M85 542c0 342 228 606 587 609c286 3 424 -164 434 -417c3 -83 -6 -145 -13 -197h-717c0 -4 1 -7 1 -10c15 -274 162 -380 347 -380c100 0 224 22 309 64l46 -108c-1 -1 -2 -1 -2 -2l2 1c-185 -134 -262 -248 -262 -332c0 -121 171 -133 288 -97v-116
c-133 -96 -512 -118 -512 119c0 124 86 235 210 314c-59 -11 -120 -17 -179 -16c-345 4 -539 217 -539 568zM379 679h443c9 114 13 257 -77 317c-28 19 -65 30 -113 30c-158 0 -236 -154 -253 -347z" />
    <glyph glyph-name="thorn" unicode="&#xfe;" horiz-adv-x="1312" 
d="M184 56v1364l-145 47v117l379 43l50 -17v-546c66 47 162 88 290 88c237 0 469 -148 469 -547c0 -333 -240 -633 -603 -633c-57 0 -114 4 -167 11l11 -86v-267l206 -25v-116h-638v116l149 27c0 141 -1 282 -1 424zM468 182c19 -43 83 -82 186 -82c140 0 279 115 288 468
c7 300 -153 424 -296 424c-83 0 -142 -24 -178 -43v-767z" />
    <glyph glyph-name="lslash" unicode="&#x142;" horiz-adv-x="719" 
d="M86 0v114l141 25v557l-133 -48v200l133 51v518l-146 48v117l380 46l50 -20v-600l191 74v-213l-191 -70v-659l177 -26v-114h-602z" />
    <glyph glyph-name="dotlessj" unicode="&#x237;" horiz-adv-x="669" 
d="M228 -2v848l-123 116v75l339 109l66 -24v-1138c0 -312 -152 -499 -381 -499c-28 0 -145 6 -156 15v188c23 -7 101 -11 125 -11c106 0 130 86 130 321z" />
    <glyph glyph-name="oe" unicode="&#x153;" horiz-adv-x="2107" 
d="M86 570c5 388 278 578 577 582c214 2 370 -80 458 -226c101 137 262 223 467 225c286 3 424 -164 434 -417c3 -83 -6 -145 -14 -197h-716c0 -4 1 -7 1 -10c15 -274 162 -380 347 -380c100 0 224 22 309 64l46 -108c-91 -78 -280 -132 -455 -129c-210 3 -363 82 -452 222
c-105 -144 -272 -219 -452 -220c-400 -1 -554 275 -550 594zM1295 679h443c9 114 13 257 -77 317c-28 19 -65 30 -114 30c-157 0 -235 -154 -252 -347zM646 107c204 -2 257 210 257 463c0 224 -57 452 -250 454c-204 2 -265 -199 -265 -434c0 -209 65 -481 258 -483z" />
    <glyph glyph-name="kgreenlandic" unicode="&#x138;" horiz-adv-x="1322" 
d="M87 0v114l147 27v749l-155 69v110l354 80l85 -28v-415l-9 -144l376 395l-169 19v147h567v-147l-181 -18l-284 -279l376 -543l118 -21v-115h-545v115l104 26l-234 379l-129 -138l9 -129v-115l129 -24v-114h-559z" />
    <glyph glyph-name="ldot" unicode="&#x140;" horiz-adv-x="1113" 
d="M85 0v114l140 25v1278l-146 48v117l380 46l51 -20v-1468l176 -26v-114h-601zM720 792c0 110 107 192 199 192c118 0 173 -73 173 -163c0 -115 -103 -187 -203 -187c-85 0 -169 58 -169 158z" />
    <glyph glyph-name="OE" unicode="&#x152;" horiz-adv-x="2156" 
d="M75 753c11 507 352 809 736 814c54 0 106 -4 155 -14h1006l30 -318h-147l-73 164l-438 17v-550l307 9l38 150h135v-463h-135l-38 157l-307 6v-588l501 25l116 201l142 -31l-50 -332h-1073c-61 -17 -127 -27 -194 -28c-440 -4 -720 335 -711 781zM800 108
c111 0 196 39 258 114v1059c-63 89 -149 147 -260 147c-277 0 -407 -244 -407 -674c0 -284 130 -646 409 -646z" />
    <glyph glyph-name="uni0001" 
 />
    <glyph glyph-name="uni0002" 
 />
    <glyph glyph-name="uni0003" 
 />
    <glyph glyph-name="uni0019" 
 />
    <glyph glyph-name="uni0018" 
 />
    <glyph glyph-name="uni0017" 
 />
    <glyph glyph-name="uni0016" 
 />
    <glyph glyph-name="uni0015" 
 />
    <glyph glyph-name="uni0014" 
 />
    <glyph glyph-name="uni0013" 
 />
    <glyph glyph-name="uni0012" 
 />
    <glyph glyph-name="uni0011" 
 />
    <glyph glyph-name="uni0010" 
 />
    <glyph glyph-name="uni0009" unicode="&#x9;" 
 />
    <glyph glyph-name="uni0008" 
 />
    <glyph glyph-name="uni0007" 
 />
    <glyph glyph-name="uni0006" 
 />
    <glyph glyph-name="uni0005" 
 />
    <glyph glyph-name="uni0004" 
 />
    <glyph glyph-name="hbar" unicode="&#x127;" horiz-adv-x="1416" 
d="M88 0v114l146 25v1049h-162v123h162v106l-151 48v117l381 46l54 -20l-1 -297h180v-123h-180v-51l-14 -133c120 104 275 142 380 142c280 0 337 -183 333 -528v-479l142 -25v-114l-581 1v113l155 26v414c0 251 -11 404 -206 404c-71 0 -145 -15 -208 -62v-757l119 -25
v-114h-549z" />
    <glyph glyph-name="Ldotaccent" unicode="&#x13f;" horiz-adv-x="1412" 
d="M99 0v116l153 35v1231l-149 19v152h618v-152l-180 -20l-1 -1242l436 34l148 238l123 -51l-67 -360h-1081zM1027 830c0 110 107 192 200 192c118 0 172 -73 172 -163c0 -115 -103 -187 -202 -187c-86 0 -170 58 -170 158z" />
    <glyph glyph-name="trademark" unicode="&#x2122;" horiz-adv-x="2285" 
d="M987 777v84l113 20l28 561l-97 11v100h372l139 -385l30 -121l165 506h341v-100l-92 -11l46 -561l99 -20v-84h-381v84l80 18l-11 356c0 10 -2 104 -2 214l-17 -72l-206 -608h-93l-222 552l-44 129l3 -157l-12 -412l94 -20v-84h-333zM336 777v84l118 18v561l-154 -20
l-40 -119l-83 -2l16 254h723l6 -250l-76 -7l-39 129l-142 16v-561l123 -19v-84h-452z" />
    <glyph glyph-name="perthousand" unicode="&#x2030;" horiz-adv-x="2814" 
d="M547 -100l646 1797h205l-647 -1797h-204zM445 692c-212 -3 -343 166 -343 361c0 239 178 371 375 374c240 4 342 -162 342 -365c0 -238 -177 -367 -374 -370zM466 818c89 0 141 91 141 237c0 148 -64 247 -145 247c-90 0 -148 -93 -148 -241c0 -135 71 -243 152 -243z
M1979 525c0 239 178 371 375 374c240 4 343 -162 343 -365c0 -238 -178 -368 -375 -370c-212 -2 -343 166 -343 361zM1145 525c0 239 178 371 375 374c239 4 342 -162 342 -365c0 -238 -178 -368 -374 -370c-212 -2 -343 166 -343 361zM2195 533c0 -135 70 -243 152 -243
c89 0 141 91 141 237c0 148 -64 247 -145 247c-90 0 -148 -93 -148 -241zM1360 533c0 -135 71 -243 153 -243c88 0 141 91 141 237c0 148 -64 247 -145 247c-90 0 -149 -93 -149 -241z" />
    <glyph glyph-name="ellipsis" unicode="&#x2026;" horiz-adv-x="2276" 
d="M1710 133c0 109 107 192 199 192c118 0 172 -74 172 -164c0 -115 -102 -187 -202 -187c-85 0 -169 58 -169 159zM952 133c0 109 107 192 200 192c118 0 172 -74 172 -164c0 -115 -103 -187 -202 -187c-86 0 -170 58 -170 159zM195 133c0 109 106 192 199 192
c118 0 172 -74 172 -164c0 -115 -102 -187 -202 -187c-85 0 -169 58 -169 159z" />
    <glyph glyph-name="Eth" unicode="&#xd0;" horiz-adv-x="1603" 
d="M97 0v116l155 36v561h-181v181h181v504l-151 20v135h300c126 0 234 14 362 14c535 1 767 -298 767 -747c0 -524 -337 -835 -798 -830c-99 1 -226 11 -327 11c-102 0 -206 -1 -308 -1zM540 159c64 -28 149 -38 254 -31c240 14 435 239 435 629c0 453 -182 672 -506 671
c-81 -1 -140 -10 -183 -25v-509h266v-181h-266v-554z" />
    <glyph glyph-name="kcommaaccent" unicode="&#x137;" horiz-adv-x="1322" 
d="M87 0v114l147 27v1258l-169 56v118l401 55l52 -25v-895l-9 -146l376 395l-169 19v147h567v-147l-181 -18l-284 -279l376 -543l118 -21v-115h-545v115l104 26l-234 379l-129 -138l9 -129v-115l129 -24v-114h-559zM528 -178l128 138c139 -16 238 -128 238 -270
c0 -176 -168 -306 -253 -330l-97 51v23c51 34 99 102 99 186c0 73 -61 135 -115 135v67z" />
    <glyph glyph-name="florin" unicode="&#x192;" horiz-adv-x="1019" 
d="M235 -355l100 1299h-199l7 92l205 71l7 95c20 262 246 512 488 512c75 0 139 -10 170 -25l-17 -221c-18 9 -104 45 -191 45c-97 0 -156 -17 -172 -215l-13 -179h280l-5 -175h-289l-100 -1299h-271z" />
    <glyph glyph-name="approxequal" unicode="&#x2248;" horiz-adv-x="1344" 
d="M255 912l-86 110c34 86 186 221 343 221c167 0 219 -152 350 -152c93 0 172 62 215 101l88 -110c-33 -92 -181 -222 -342 -222c-166 0 -212 153 -353 153c-94 0 -170 -62 -215 -101zM261 410l-86 110c34 87 186 221 343 221c167 0 219 -152 350 -152c93 0 172 63 215 102
l88 -110c-33 -92 -181 -223 -342 -223c-166 0 -212 153 -353 153c-94 0 -170 -62 -215 -101z" />
    <glyph glyph-name="Delta" unicode="&#x394;" horiz-adv-x="1873" 
d="M183 22l722 1515h32l753 -1510l-16 -26h-1477zM430 151h934l-480 964z" />
    <glyph glyph-name="Delta" unicode="&#x2206;" horiz-adv-x="1873" 
d="M183 22l722 1515h32l753 -1510l-16 -26h-1477zM430 151h934l-480 964z" />
    <glyph glyph-name="lessequal" unicode="&#x2264;" horiz-adv-x="1333" 
d="M184 919v113l968 411v-235l-625 -233l625 -231v-236zM181 144v197h960v-197h-960z" />
    <glyph glyph-name="greaterequal" unicode="&#x2265;" horiz-adv-x="1333" 
d="M184 508v236l625 231l-625 233v235l968 -411v-113zM181 144v197h960v-197h-960z" />
    <glyph glyph-name="notequal" unicode="&#x2260;" horiz-adv-x="1286" 
d="M374 254l67 217h-260v195h324l83 285h-407v194h471l62 194h200l-61 -194h252v-194h-316l-82 -285h398v-195h-463l-67 -217h-201z" />
    <glyph glyph-name="fraction" unicode="&#x2044;" horiz-adv-x="989" 
d="M12 -287l787 2168l178 -52l-789 -2172z" />
    <glyph glyph-name="lozenge" unicode="&#x25ca;" horiz-adv-x="1369" 
d="M558 0l-399 660v92l420 664h232l398 -660v-92l-420 -664h-231zM701 187l295 478l-331 564l-293 -479z" />
    <glyph glyph-name="Omega" unicode="&#x3a9;" horiz-adv-x="2052" 
d="M150 0v459l137 7l39 -223h349c-193 108 -399 379 -394 637c11 475 375 681 745 681c417 0 716 -238 706 -657c-6 -226 -205 -511 -381 -661h332l88 240l124 -7l-56 -476h-684l1 208c151 105 271 410 271 724c0 329 -170 507 -412 507c-251 0 -429 -153 -429 -541
c0 -294 168 -577 302 -690l1 -208l-13 21l12 -21h-738z" />
    <glyph glyph-name="Omega" unicode="&#x2126;" horiz-adv-x="2052" 
d="M150 0v459l137 7l39 -223h349c-193 108 -399 379 -394 637c11 475 375 681 745 681c417 0 716 -238 706 -657c-6 -226 -205 -511 -381 -661h332l88 240l124 -7l-56 -476h-684l1 208c151 105 271 410 271 724c0 329 -170 507 -412 507c-251 0 -429 -153 -429 -541
c0 -294 168 -577 302 -690l1 -208l-13 21l12 -21h-738z" />
    <glyph glyph-name="radical" unicode="&#x221a;" horiz-adv-x="1773" 
d="M224 436l-90 143l181 129h254l296 -803h8l604 2015h197l-708 -2274h-245l-371 882z" />
    <glyph glyph-name="summation" unicode="&#x2211;" horiz-adv-x="1549" 
d="M206 -72l523 727l-523 751l7 147h1062l32 -335h-144l-72 192l-583 15l511 -720l-559 -748l652 24l110 205l143 -31l-51 -335l-1096 1z" />
    <glyph glyph-name="integral" unicode="&#x222b;" horiz-adv-x="1167" 
d="M174 -201c14 -56 85 -124 161 -124c131 0 196 70 196 317c0 403 -155 776 -155 1177c0 306 193 544 471 544c80 0 232 -19 296 -147l-150 -118c-14 55 -84 123 -161 123c-131 0 -196 -69 -196 -317c0 -403 149 -778 149 -1182c0 -306 -187 -544 -465 -544
c-80 0 -232 19 -296 147z" />
    <glyph glyph-name="pi" unicode="&#x3c0;" horiz-adv-x="1617" 
d="M152 114c17 4 93 29 150 68c117 80 138 169 146 305l25 383h-81c-77 1 -142 -39 -165 -101l-127 23c-4 20 1 61 14 97c51 143 176 229 313 229h731c89 0 158 26 199 107h127c-12 -182 -116 -347 -313 -356l-26 -549c-4 -108 25 -139 52 -139c60 0 124 44 148 113h149
c-32 -131 -166 -312 -339 -312c-183 0 -231 123 -220 281l57 606h-341l-10 -439c-13 -229 -45 -294 -137 -378c-39 -36 -98 -60 -151 -76z" />
    <glyph glyph-name="product" unicode="&#x220f;" horiz-adv-x="1726" 
d="M110 -61l179 38l-1 1419l-182 21v135h1519v-135l-188 -20v-1420l184 -39v-115h-655v115l184 38v1438h-574v-1437l179 -38v-116h-645v116z" />
    <glyph glyph-name="partialdiff" unicode="&#x2202;" horiz-adv-x="1377" 
d="M88 399c0 379 368 653 741 653c63 0 126 -7 187 -21c-24 285 -128 534 -462 534c-101 0 -198 -23 -286 -77l-83 108c130 89 306 140 473 140c459 0 613 -335 613 -738c0 -452 -165 -1046 -725 -1046c-285 0 -458 202 -458 447zM340 486c0 -191 137 -365 334 -365
c236 0 313 279 337 518c5 51 8 100 9 145c-87 62 -191 99 -301 99c-199 0 -379 -128 -379 -397z" />
    <glyph glyph-name="infinity" unicode="&#x221e;" horiz-adv-x="2088" 
d="M137 571c-3 235 241 494 470 494c220 0 356 -145 471 -282c116 140 265 281 434 282c258 1 436 -171 439 -395c4 -235 -241 -494 -469 -494c-221 0 -357 145 -472 281c-113 -140 -257 -280 -425 -281c-257 -1 -445 171 -448 395zM1168 676c95 -119 242 -302 387 -302
c97 0 157 109 153 236c-5 140 -134 264 -262 264c-91 0 -192 -84 -278 -198zM381 631c4 -142 142 -269 270 -269c91 0 186 86 270 201c-94 117 -235 299 -379 299c-97 0 -165 -106 -161 -231z" />
    <glyph glyph-name="HT" 
 />
    <glyph glyph-name="LF" 
 />
    <glyph glyph-name="uni000A" unicode="&#xa;" 
 />
    <glyph glyph-name="uni000B" 
 />
    <glyph glyph-name="uni000C" 
 />
    <glyph glyph-name="uni000D" unicode="&#xd;" 
 />
    <glyph glyph-name="uni000E" 
 />
    <glyph glyph-name="uni000F" 
 />
    <glyph glyph-name="uni0000" 
 />
    <glyph glyph-name="uni0000" 
 />
    <glyph glyph-name="uni001A" 
 />
    <glyph glyph-name="uni001B" 
 />
    <glyph glyph-name="uni001C" 
 />
    <glyph glyph-name="uni001D" 
 />
    <glyph glyph-name="uni001E" 
 />
    <glyph glyph-name="uni001F" 
 />
    <glyph glyph-name="uni007F" 
 />
    <glyph glyph-name="DLE" 
 />
    <glyph glyph-name="DC1" 
 />
    <glyph glyph-name="DC2" 
 />
    <glyph glyph-name="DC3" 
 />
    <glyph glyph-name="DC4" 
 />
    <glyph glyph-name="minus" unicode="&#x2212;" horiz-adv-x="1286" 
d="M181 724v198h924v-198h-924z" />
    <glyph glyph-name="RS" 
 />
    <glyph glyph-name="US" 
 />
    <glyph glyph-name="DEL" 
 />
    <glyph glyph-name="nbspace" unicode="&#xa0;" horiz-adv-x="510" 
 />
    <glyph glyph-name="dotaccent.cap" horiz-adv-x="650" 
d="M309 1633c-81 0 -157 48 -157 133c0 88 94 154 182 154c112 0 156 -58 156 -132c0 -95 -88 -155 -181 -155z" />
    <glyph glyph-name="Zacute" unicode="&#x179;" horiz-adv-x="1367" 
d="M684 1599l-80 84l355 237l173 -173c-118 -83 -368 -140 -448 -148zM101 0l-34 117l794 1143l139 155l-634 -36l-113 -238l-133 25l38 387h1116l39 -124l-786 -1141l-125 -147l641 43l169 261l127 -33l-93 -412h-1145z" />
    <glyph glyph-name="Zdotaccent" unicode="&#x17b;" horiz-adv-x="1367" 
d="M699 1633c-81 0 -157 48 -157 133c0 88 94 154 182 154c112 0 156 -58 156 -132c0 -95 -88 -155 -181 -155zM101 0l-34 117l794 1143l139 155l-634 -36l-113 -238l-133 25l38 387h1116l39 -124l-786 -1141l-125 -147l641 43l169 261l127 -33l-93 -412h-1145z" />
    <glyph glyph-name="Zcaron" unicode="&#x17d;" horiz-adv-x="1367" 
d="M610 1605l-261 252l101 63l266 -145l273 145l97 -61l-262 -254h-214zM101 0l-34 117l794 1143l139 155l-634 -36l-113 -238l-133 25l38 387h1116l39 -124l-786 -1141l-125 -147l641 43l169 261l127 -33l-93 -412h-1145z" />
    <glyph glyph-name="Agrave" unicode="&#xc0;" horiz-adv-x="1554" 
d="M370 1747l173 173l344 -237l-81 -84c-79 8 -318 65 -436 148zM4 0v116l137 36l505 1401h262l487 -1401l155 -37v-115h-616v115l147 39l-69 225h-570l-71 -223l157 -40v-116h-524zM492 535h471l-146 471l-83 286z" />
    <glyph glyph-name="Aacute" unicode="&#xc1;" horiz-adv-x="1554" 
d="M745 1599l-81 84l356 237l172 -173c-118 -83 -368 -140 -447 -148zM4 0v116l137 36l505 1401h262l487 -1401l155 -37v-115h-616v115l147 39l-69 225h-570l-71 -223l157 -40v-116h-524zM492 535h471l-146 471l-83 286z" />
    <glyph glyph-name="Acircumflex" unicode="&#xc2;" horiz-adv-x="1554" 
d="M503 1605l-97 62l266 253h213l264 -252l-101 -63l-268 146zM4 0v116l137 36l505 1401h262l487 -1401l155 -37v-115h-616v115l147 39l-69 225h-570l-71 -223l157 -40v-116h-524zM492 535h471l-146 471l-83 286z" />
    <glyph glyph-name="Adieresis" unicode="&#xc4;" horiz-adv-x="1554" 
d="M1020 1633c-81 0 -157 48 -157 133c0 88 94 154 182 154c112 0 156 -58 156 -132c0 -95 -88 -155 -181 -155zM508 1632c-83 0 -155 48 -155 132c0 90 91 156 180 156c112 0 160 -59 160 -133c0 -94 -91 -155 -185 -155zM4 0v116l137 36l505 1401h262l487 -1401l155 -37
v-115h-616v115l147 39l-69 225h-570l-71 -223l157 -40v-116h-524zM492 535h471l-146 471l-83 286z" />
    <glyph glyph-name="Aring" unicode="&#xc5;" horiz-adv-x="1554" 
d="M4 0v116l137 36l478 1325c-71 41 -119 111 -119 201c0 147 121 242 277 242c157 0 279 -98 279 -242c0 -91 -50 -161 -122 -202l461 -1324l155 -37v-115h-616v115l147 39l-69 225h-570l-71 -223l157 -40v-116h-524zM777 1555c72 0 128 51 128 122c0 69 -56 124 -128 124
c-74 0 -129 -53 -129 -124s55 -122 129 -122zM492 535h471l-146 471l-83 286z" />
    <glyph glyph-name="ugrave" unicode="&#xf9;" horiz-adv-x="1314" 
d="M755 1338c-138 20 -349 172 -441 308l208 175l306 -409zM176 421v494l-98 53v102l328 76l45 -18v-693c0 -197 34 -290 180 -290c90 0 187 45 221 79v678l-126 54v114l361 76l43 -17v-1015h117v-94c-42 -27 -152 -51 -241 -51c-73 0 -126 29 -126 100v57
c-93 -96 -241 -151 -347 -151c-294 0 -356 160 -357 446z" />
    <glyph glyph-name="uacute" unicode="&#xfa;" horiz-adv-x="1314" 
d="M566 1338l-73 74l306 408l208 -175c-90 -139 -297 -255 -441 -307zM176 421v494l-98 53v102l328 76l45 -18v-693c0 -197 34 -290 180 -290c90 0 187 45 221 79v678l-126 54v114l361 76l43 -17v-1015h117v-94c-42 -27 -152 -51 -241 -51c-73 0 -126 29 -126 100v57
c-93 -96 -241 -151 -347 -151c-294 0 -356 160 -357 446z" />
    <glyph glyph-name="ucircumflex" unicode="&#xfb;" horiz-adv-x="1314" 
d="M356 1335l-107 62l272 378h226l270 -377l-119 -62l-265 232zM176 421v494l-98 53v102l328 76l45 -18v-693c0 -197 34 -290 180 -290c90 0 187 45 221 79v678l-126 54v114l361 76l43 -17v-1015h117v-94c-42 -27 -152 -51 -241 -51c-73 0 -126 29 -126 100v57
c-93 -96 -241 -151 -347 -151c-294 0 -356 160 -357 446z" />
    <glyph glyph-name="udieresis" unicode="&#xfc;" horiz-adv-x="1314" 
d="M870 1363c-80 0 -156 47 -156 132c0 88 93 153 181 153c112 0 156 -57 156 -131c0 -95 -87 -154 -181 -154zM369 1363c-82 0 -154 46 -154 130c0 90 91 155 180 155c112 0 159 -58 159 -132c0 -94 -90 -153 -185 -153zM176 421v494l-98 53v102l328 76l45 -18v-693
c0 -197 34 -290 180 -290c90 0 187 45 221 79v678l-126 54v114l361 76l43 -17v-1015h117v-94c-42 -27 -152 -51 -241 -51c-73 0 -126 29 -126 100v57c-93 -96 -241 -151 -347 -151c-294 0 -356 160 -357 446z" />
    <glyph glyph-name="agrave" unicode="&#xe0;" horiz-adv-x="1191" 
d="M704 1338c-138 20 -349 172 -441 308l208 175l306 -409zM88 363c45 253 456 323 649 323v38c0 212 -95 256 -239 256c-132 0 -256 -50 -314 -82l-54 127c67 55 256 121 461 121c244 0 431 -81 431 -392l-1 -640h129v-89c-58 -38 -155 -51 -229 -51
c-50 0 -153 12 -153 113v9c-68 -68 -165 -122 -308 -122c-289 0 -410 185 -372 389zM368 328c0 -142 81 -200 225 -189c57 5 105 35 143 66c0 117 1 233 1 350c-144 0 -369 -44 -369 -227z" />
    <glyph glyph-name="aacute" unicode="&#xe1;" horiz-adv-x="1191" 
d="M515 1338l-73 74l306 408l207 -175c-89 -139 -296 -255 -440 -307zM88 363c45 253 456 323 649 323v38c0 212 -95 256 -239 256c-132 0 -256 -50 -314 -82l-54 127c67 55 256 121 461 121c244 0 431 -81 431 -392l-1 -640h129v-89c-58 -38 -155 -51 -229 -51
c-50 0 -153 12 -153 113v9c-68 -68 -165 -122 -308 -122c-289 0 -410 185 -372 389zM368 328c0 -142 81 -200 225 -189c57 5 105 35 143 66c0 117 1 233 1 350c-144 0 -369 -44 -369 -227z" />
    <glyph glyph-name="acircumflex" unicode="&#xe2;" horiz-adv-x="1191" 
d="M305 1335l-107 62l272 378h225l271 -377l-119 -62l-265 232zM88 363c45 253 456 323 649 323v38c0 212 -95 256 -239 256c-132 0 -256 -50 -314 -82l-54 127c67 55 256 121 461 121c244 0 431 -81 431 -392l-1 -640h129v-89c-58 -38 -155 -51 -229 -51
c-50 0 -153 12 -153 113v9c-68 -68 -165 -122 -308 -122c-289 0 -410 185 -372 389zM368 328c0 -142 81 -200 225 -189c57 5 105 35 143 66c0 117 1 233 1 350c-144 0 -369 -44 -369 -227z" />
    <glyph glyph-name="adieresis" unicode="&#xe4;" horiz-adv-x="1191" 
d="M819 1363c-81 0 -156 47 -156 132c0 88 93 153 181 153c112 0 156 -57 156 -131c0 -95 -88 -154 -181 -154zM318 1363c-82 0 -154 46 -154 130c0 90 91 155 180 155c112 0 159 -58 159 -132c0 -94 -90 -153 -185 -153zM88 363c45 253 456 323 649 323v38
c0 212 -95 256 -239 256c-132 0 -256 -50 -314 -82l-54 127c67 55 256 121 461 121c244 0 431 -81 431 -392l-1 -640h129v-89c-58 -38 -155 -51 -229 -51c-50 0 -153 12 -153 113v9c-68 -68 -165 -122 -308 -122c-289 0 -410 185 -372 389zM368 328c0 -142 81 -200 225 -189
c57 5 105 35 143 66c0 117 1 233 1 350c-144 0 -369 -44 -369 -227z" />
    <glyph glyph-name="atilde" unicode="&#xe3;" horiz-adv-x="1191" 
d="M238 1390l-72 87c47 107 197 194 295 194c139 0 188 -116 279 -116c73 0 131 44 174 82l73 -87c-47 -107 -193 -196 -291 -196c-139 0 -191 118 -283 118c-67 0 -131 -45 -175 -82zM88 363c45 253 456 323 649 323v38c0 212 -95 256 -239 256c-132 0 -256 -50 -314 -82
l-54 127c67 55 256 121 461 121c244 0 431 -81 431 -392l-1 -640h129v-89c-58 -38 -155 -51 -229 -51c-50 0 -153 12 -153 113v9c-68 -68 -165 -122 -308 -122c-289 0 -410 185 -372 389zM368 328c0 -142 81 -200 225 -189c57 5 105 35 143 66c0 117 1 233 1 350
c-144 0 -369 -44 -369 -227z" />
    <glyph glyph-name="aring" unicode="&#xe5;" horiz-adv-x="1191" 
d="M568 1300c-151 0 -275 117 -275 260c0 144 124 261 275 261c153 0 277 -120 277 -261c0 -143 -124 -260 -277 -260zM568 1427c75 0 133 57 133 133c0 72 -58 133 -133 133c-76 0 -133 -59 -133 -133c0 -76 57 -133 133 -133zM88 363c45 253 456 323 649 323v38
c0 212 -95 256 -239 256c-132 0 -256 -50 -314 -82l-54 127c67 55 256 121 461 121c244 0 431 -81 431 -392l-1 -640h129v-89c-58 -38 -155 -51 -229 -51c-50 0 -153 12 -153 113v9c-68 -68 -165 -122 -308 -122c-289 0 -410 185 -372 389zM368 328c0 -142 81 -200 225 -189
c57 5 105 35 143 66c0 117 1 233 1 350c-144 0 -369 -44 -369 -227z" />
    <glyph glyph-name="egrave" unicode="&#xe8;" horiz-adv-x="1198" 
d="M764 1338c-138 20 -349 172 -440 308l207 175l306 -409zM85 542c0 342 228 606 587 609c286 3 424 -164 434 -417c3 -83 -6 -145 -13 -197h-717c0 -4 1 -7 1 -10c15 -274 162 -380 347 -380c100 0 224 22 309 64l46 -108c-91 -78 -280 -132 -455 -129
c-345 4 -539 217 -539 568zM379 679h443c9 114 13 257 -77 317c-28 19 -65 30 -113 30c-158 0 -236 -154 -253 -347z" />
    <glyph glyph-name="eacute" unicode="&#xe9;" horiz-adv-x="1198" 
d="M575 1338l-73 74l306 408l208 -175c-90 -139 -297 -255 -441 -307zM85 542c0 342 228 606 587 609c286 3 424 -164 434 -417c3 -83 -6 -145 -13 -197h-717c0 -4 1 -7 1 -10c15 -274 162 -380 347 -380c100 0 224 22 309 64l46 -108c-91 -78 -280 -132 -455 -129
c-345 4 -539 217 -539 568zM379 679h443c9 114 13 257 -77 317c-28 19 -65 30 -113 30c-158 0 -236 -154 -253 -347z" />
    <glyph glyph-name="ecircumflex" unicode="&#xea;" horiz-adv-x="1198" 
d="M365 1335l-106 62l271 378h226l270 -377l-119 -62l-264 232zM85 542c0 342 228 606 587 609c286 3 424 -164 434 -417c3 -83 -6 -145 -13 -197h-717c0 -4 1 -7 1 -10c15 -274 162 -380 347 -380c100 0 224 22 309 64l46 -108c-91 -78 -280 -132 -455 -129
c-345 4 -539 217 -539 568zM379 679h443c9 114 13 257 -77 317c-28 19 -65 30 -113 30c-158 0 -236 -154 -253 -347z" />
    <glyph glyph-name="edieresis" unicode="&#xeb;" horiz-adv-x="1198" 
d="M880 1363c-81 0 -157 47 -157 132c0 88 93 153 181 153c112 0 156 -57 156 -131c0 -95 -87 -154 -180 -154zM378 1363c-82 0 -154 46 -154 130c0 90 91 155 180 155c112 0 160 -58 160 -132c0 -94 -91 -153 -186 -153zM85 542c0 342 228 606 587 609
c286 3 424 -164 434 -417c3 -83 -6 -145 -13 -197h-717c0 -4 1 -7 1 -10c15 -274 162 -380 347 -380c100 0 224 22 309 64l46 -108c-91 -78 -280 -132 -455 -129c-345 4 -539 217 -539 568zM379 679h443c9 114 13 257 -77 317c-28 19 -65 30 -113 30
c-158 0 -236 -154 -253 -347z" />
    <glyph glyph-name="ff" unicode="&#xfb00;" horiz-adv-x="1798" 
d="M987 0v114l179 27v803h-199v92l199 71v95c0 262 217 512 459 512c78 0 149 -10 184 -25v-221c-20 9 -114 45 -207 45c-96 0 -152 -17 -152 -215v-179h301v-175h-301v-805l236 -25v-114h-699zM88 0v114l179 27v803h-199v92l199 71v95c0 262 218 512 459 512
c79 0 150 -10 184 -25v-221c-20 9 -114 45 -206 45c-97 0 -153 -17 -153 -215v-179h301v-175h-301v-805l236 -25v-114h-699z" />
    <glyph glyph-name="fi" unicode="&#xfb01;" horiz-adv-x="1619" 
d="M88 0v114l179 27v803h-199v92l199 71v95c0 262 218 512 459 512c79 0 150 -10 184 -25v-221c-20 9 -114 45 -206 45c-97 0 -153 -17 -153 -215v-179h301v-175h-301v-805l236 -25v-114h-699zM1246 1347c-87 0 -171 60 -171 159c0 109 106 191 204 191
c119 0 171 -73 171 -161c0 -115 -101 -189 -204 -189zM992 0v114l150 26v706l-132 113v80l344 107l68 -23v-985l152 -24v-114h-582z" />
    <glyph glyph-name="ffi" unicode="&#xfb03;" horiz-adv-x="2517" 
d="M987 0v114l179 27v803h-199v92l199 71v95c0 262 217 512 459 512c78 0 149 -10 184 -25v-221c-20 9 -114 45 -207 45c-96 0 -152 -17 -152 -215v-179h301v-175h-301v-805l236 -25v-114h-699zM88 0v114l179 27v803h-199v92l199 71v95c0 262 218 512 459 512
c79 0 150 -10 184 -25v-221c-20 9 -114 45 -206 45c-97 0 -153 -17 -153 -215v-179h301v-175h-301v-805l236 -25v-114h-699zM1974 1506c0 109 106 191 203 191c119 0 171 -73 171 -161c0 -115 -100 -189 -203 -189c-87 0 -171 60 -171 159zM1891 0v114l150 26v706l-132 113
v80l344 107l68 -23v-985l152 -24v-114h-582z" />
    <glyph glyph-name="fl" unicode="&#xfb02;" horiz-adv-x="1618" 
d="M88 0v114l179 27v803h-199v92l199 71v95c0 262 218 512 459 512c79 0 150 -10 184 -25v-221c-20 9 -114 45 -206 45c-97 0 -153 -17 -153 -215v-179h301v-175h-301v-805l236 -25v-114h-699zM985 0v114l141 25v1278l-146 48v117l380 46l50 -20v-1468l176 -26v-114h-601z
" />
    <glyph glyph-name="ffl" unicode="&#xfb04;" horiz-adv-x="2516" 
d="M987 0v114l179 27v803h-199v92l199 71v95c0 262 217 512 459 512c78 0 149 -10 184 -25v-221c-20 9 -114 45 -207 45c-96 0 -152 -17 -152 -215v-179h301v-175h-301v-805l236 -25v-114h-699zM88 0v114l179 27v803h-199v92l199 71v95c0 262 218 512 459 512
c79 0 150 -10 184 -25v-221c-20 9 -114 45 -206 45c-97 0 -153 -17 -153 -215v-179h301v-175h-301v-805l236 -25v-114h-699zM1884 0v114l141 25v1278l-146 48v117l380 46l50 -20v-1468l176 -26v-114h-601z" />
    <glyph glyph-name="zcaron" unicode="&#x17e;" horiz-adv-x="1119" 
d="M466 1335l-271 378l111 62l273 -233l269 232l114 -61l-271 -378h-225zM108 0l-40 92l95 146l481 661l84 94l-408 -19l-64 -194h-143v339h910l40 -106l-524 -743l-113 -142l435 29l62 171h150l-17 -328h-948z" />
    <glyph glyph-name="zdotaccent" unicode="&#x17c;" horiz-adv-x="1119" 
d="M555 1342c-82 0 -155 48 -155 131c0 91 92 157 181 157c112 0 159 -59 159 -133c0 -95 -90 -155 -185 -155zM108 0l-40 92l95 146l481 661l84 94l-408 -19l-64 -194h-143v339h910l40 -106l-524 -743l-113 -142l435 29l62 171h150l-17 -328h-948z" />
    <glyph glyph-name="yacute" unicode="&#xfd;" horiz-adv-x="1197" 
d="M576 1338l-73 74l306 408l207 -175c-89 -139 -296 -255 -440 -307zM148 -295c29 -7 71 -15 119 -14c77 1 207 39 277 309h-49l-397 949l-94 23v147h532v-147l-127 -25l213 -592l37 -152l43 152l180 596l-145 21v147h475v-147l-105 -19l-379 -1001
c-111 -293 -219 -461 -417 -478c-28 -3 -59 -4 -90 -3c-29 2 -62 6 -74 14z" />
    <glyph glyph-name="ydieresis" unicode="&#xff;" horiz-adv-x="1197" 
d="M880 1363c-81 0 -156 47 -156 132c0 88 93 153 181 153c112 0 156 -57 156 -131c0 -95 -88 -154 -181 -154zM379 1363c-82 0 -154 46 -154 130c0 90 91 155 180 155c112 0 159 -58 159 -132c0 -94 -90 -153 -185 -153zM148 -295c29 -7 71 -15 119 -14
c77 1 207 39 277 309h-49l-397 949l-94 23v147h532v-147l-127 -25l213 -592l37 -152l43 152l180 596l-145 21v147h475v-147l-105 -19l-379 -1001c-111 -293 -219 -461 -417 -478c-28 -3 -59 -4 -90 -3c-29 2 -62 6 -74 14z" />
    <glyph glyph-name="ograve" unicode="&#xf2;" horiz-adv-x="1290" 
d="M775 1338c-138 20 -349 172 -440 308l207 175l306 -409zM86 570c5 388 278 578 577 582c349 4 543 -218 542 -569c-2 -392 -265 -606 -569 -607c-400 -1 -554 275 -550 594zM646 107c204 -2 257 210 257 463c0 224 -57 452 -250 454c-204 2 -265 -199 -265 -434
c0 -209 65 -481 258 -483z" />
    <glyph glyph-name="oacute" unicode="&#xf3;" horiz-adv-x="1290" 
d="M586 1338l-73 74l306 408l208 -175c-90 -139 -297 -255 -441 -307zM86 570c5 388 278 578 577 582c349 4 543 -218 542 -569c-2 -392 -265 -606 -569 -607c-400 -1 -554 275 -550 594zM646 107c204 -2 257 210 257 463c0 224 -57 452 -250 454
c-204 2 -265 -199 -265 -434c0 -209 65 -481 258 -483z" />
    <glyph glyph-name="ocircumflex" unicode="&#xf4;" horiz-adv-x="1290" 
d="M376 1335l-106 62l272 378h225l270 -377l-119 -62l-264 232zM86 570c5 388 278 578 577 582c349 4 543 -218 542 -569c-2 -392 -265 -606 -569 -607c-400 -1 -554 275 -550 594zM646 107c204 -2 257 210 257 463c0 224 -57 452 -250 454c-204 2 -265 -199 -265 -434
c0 -209 65 -481 258 -483z" />
    <glyph glyph-name="otilde" unicode="&#xf5;" horiz-adv-x="1290" 
d="M309 1390l-71 87c46 107 197 194 294 194c140 0 189 -116 279 -116c74 0 131 44 174 82l73 -87c-47 -107 -192 -196 -290 -196c-139 0 -192 118 -283 118c-67 0 -131 -45 -176 -82zM86 570c5 388 278 578 577 582c349 4 543 -218 542 -569c-2 -392 -265 -606 -569 -607
c-400 -1 -554 275 -550 594zM646 107c204 -2 257 210 257 463c0 224 -57 452 -250 454c-204 2 -265 -199 -265 -434c0 -209 65 -481 258 -483z" />
    <glyph glyph-name="odieresis" unicode="&#xf6;" horiz-adv-x="1290" 
d="M891 1363c-81 0 -157 47 -157 132c0 88 93 153 181 153c112 0 156 -57 156 -131c0 -95 -87 -154 -180 -154zM390 1363c-83 0 -154 46 -154 130c0 90 90 155 179 155c112 0 160 -58 160 -132c0 -94 -91 -153 -185 -153zM86 570c5 388 278 578 577 582
c349 4 543 -218 542 -569c-2 -392 -265 -606 -569 -607c-400 -1 -554 275 -550 594zM646 107c204 -2 257 210 257 463c0 224 -57 452 -250 454c-204 2 -265 -199 -265 -434c0 -209 65 -481 258 -483z" />
    <glyph glyph-name="IJ" unicode="&#x132;" horiz-adv-x="1569" 
d="M710 -305c139 49 254 125 307 253c42 117 49 252 49 456v994l-156 20v135h596v-135l-151 -21v-856c0 -216 -8 -429 -42 -543c-82 -249 -347 -375 -540 -391zM77 0v116l184 37v1244l-183 21v135h648v-135l-176 -22v-1242l186 -38v-116h-659z" />
    <glyph glyph-name="Igrave" unicode="&#xcc;" horiz-adv-x="811" 
d="M432 1599c-79 8 -318 65 -436 148l172 173l344 -237zM77 0v116l184 37v1244l-183 21v135h648v-135l-176 -22v-1242l186 -38v-116h-659z" />
    <glyph glyph-name="Iacute" unicode="&#xcd;" horiz-adv-x="811" 
d="M370 1599l-80 84l355 237l173 -173c-118 -83 -368 -140 -448 -148zM77 0v116l184 37v1244l-183 21v135h648v-135l-176 -22v-1242l186 -38v-116h-659z" />
    <glyph glyph-name="Itilde" unicode="&#x128;" horiz-adv-x="811" 
d="M61 1653l-72 75c46 108 197 192 294 192c140 0 189 -111 279 -111c74 0 131 35 174 75l73 -87c-47 -107 -192 -182 -290 -182c-139 0 -192 115 -283 115c-64 0 -131 -38 -175 -77zM77 0v116l184 37v1244l-183 21v135h648v-135l-176 -22v-1242l186 -38v-116h-659z" />
    <glyph glyph-name="Icircumflex" unicode="&#xce;" horiz-adv-x="811" 
d="M129 1605l-97 62l265 253h214l264 -252l-101 -63l-269 146zM77 0v116l184 37v1244l-183 21v135h648v-135l-176 -22v-1242l186 -38v-116h-659z" />
    <glyph glyph-name="Idieresis" unicode="&#xcf;" horiz-adv-x="811" 
d="M646 1633c-81 0 -157 48 -157 133c0 88 94 154 182 154c111 0 156 -58 156 -132c0 -95 -88 -155 -181 -155zM133 1632c-82 0 -154 48 -154 132c0 90 91 156 180 156c112 0 160 -59 160 -133c0 -94 -91 -155 -186 -155zM77 0v116l184 37v1244l-183 21v135h648v-135
l-176 -22v-1242l186 -38v-116h-659z" />
    <glyph glyph-name="Ugrave" unicode="&#xd9;" horiz-adv-x="1590" 
d="M439 1747l173 173l344 -237l-81 -84c-79 8 -318 65 -436 148zM190 641c0 244 2 507 3 755l-159 22v135h618v-135l-174 -22v-766c0 -424 187 -513 391 -513c225 0 354 166 353 558l-1 719l-174 24v135h517v-135l-150 -24v-718c0 -527 -263 -704 -584 -704
c-450 0 -642 224 -640 669z" />
    <glyph glyph-name="Uacute" unicode="&#xda;" horiz-adv-x="1590" 
d="M814 1599l-81 84l356 237l172 -173c-118 -83 -368 -140 -447 -148zM190 641c0 244 2 507 3 755l-159 22v135h618v-135l-174 -22v-766c0 -424 187 -513 391 -513c225 0 354 166 353 558l-1 719l-174 24v135h517v-135l-150 -24v-718c0 -527 -263 -704 -584 -704
c-450 0 -642 224 -640 669z" />
    <glyph glyph-name="Ucircumflex" unicode="&#xdb;" horiz-adv-x="1590" 
d="M572 1605l-97 62l266 253h213l264 -252l-101 -63l-268 146zM190 641c0 244 2 507 3 755l-159 22v135h618v-135l-174 -22v-766c0 -424 187 -513 391 -513c225 0 354 166 353 558l-1 719l-174 24v135h517v-135l-150 -24v-718c0 -527 -263 -704 -584 -704
c-450 0 -642 224 -640 669z" />
    <glyph glyph-name="Udieresis" unicode="&#xdc;" horiz-adv-x="1590" 
d="M1089 1633c-81 0 -157 48 -157 133c0 88 94 154 182 154c112 0 156 -58 156 -132c0 -95 -88 -155 -181 -155zM577 1632c-83 0 -155 48 -155 132c0 90 91 156 181 156c111 0 159 -59 159 -133c0 -94 -90 -155 -185 -155zM190 641c0 244 2 507 3 755l-159 22v135h618v-135
l-174 -22v-766c0 -424 187 -513 391 -513c225 0 354 166 353 558l-1 719l-174 24v135h517v-135l-150 -24v-718c0 -527 -263 -704 -584 -704c-450 0 -642 224 -640 669z" />
    <glyph glyph-name="Yacute" unicode="&#xdd;" horiz-adv-x="1419" 
d="M707 1599l-80 84l355 237l173 -173c-118 -83 -369 -140 -448 -148zM369 0v116l225 40v408l-472 835l-112 19v135h570v-134l-125 -20l279 -556l36 -102l39 108l244 546l-162 23c0 45 -1 90 -1 135h519v-135l-132 -34l-397 -800v-427l245 -41v-116h-756z" />
    <glyph glyph-name="Ydieresis" unicode="&#x178;" horiz-adv-x="1419" 
d="M983 1633c-81 0 -157 48 -157 133c0 88 94 154 182 154c111 0 155 -58 155 -132c0 -95 -87 -155 -180 -155zM470 1632c-82 0 -155 48 -155 132c0 90 92 156 181 156c112 0 159 -59 159 -133c0 -94 -90 -155 -185 -155zM369 0v116l225 40v408l-472 835l-112 19v135h570
v-134l-125 -20l279 -556l36 -102l39 108l244 546l-162 23c0 45 -1 90 -1 135h519v-135l-132 -34l-397 -800v-427l245 -41v-116h-756z" />
    <glyph glyph-name="Nacute" unicode="&#x143;" horiz-adv-x="1676" 
d="M817 1599l-80 84l356 237l172 -173c-118 -83 -368 -140 -448 -148zM81 0v116l163 39v1226l-157 20v152h443l631 -1068l111 -259v1153l-173 24v150h513v-150l-149 -21v-1382h-311l-595 970l-121 279c0 -362 1 -733 1 -1092l199 -41v-116h-555z" />
    <glyph glyph-name="Ntilde" unicode="&#xd1;" horiz-adv-x="1676" 
d="M508 1653l-72 75c46 108 197 192 294 192c140 0 189 -111 279 -111c74 0 131 35 174 75l73 -87c-47 -107 -192 -182 -290 -182c-139 0 -192 115 -283 115c-64 0 -131 -38 -175 -77zM81 0v116l163 39v1226l-157 20v152h443l631 -1068l111 -259v1153l-173 24v150h513v-150
l-149 -21v-1382h-311l-595 970l-121 279c0 -362 1 -733 1 -1092l199 -41v-116h-555z" />
    <glyph glyph-name="Atilde" unicode="&#xc3;" horiz-adv-x="1554" 
d="M435 1653l-72 75c46 108 197 192 294 192c140 0 189 -111 279 -111c74 0 131 35 174 75l73 -87c-47 -107 -192 -182 -290 -182c-139 0 -192 115 -283 115c-64 0 -131 -38 -175 -77zM4 0v116l137 36l505 1401h262l487 -1401l155 -37v-115h-616v115l147 39l-69 225h-570
l-71 -223l157 -40v-116h-524zM492 535h471l-146 471l-83 286z" />
    <glyph glyph-name="Egrave" unicode="&#xc8;" horiz-adv-x="1380" 
d="M764 1599c-79 8 -318 65 -436 148l172 173l344 -237zM101 0v116l157 36v1245l-152 21v135h1093l30 -318h-164l-73 164l-449 17v-546l306 8l44 153h147v-463h-147l-44 156l-306 6v-593l506 25l116 201l160 -31l-51 -332h-1173z" />
    <glyph glyph-name="Eacute" unicode="&#xc9;" horiz-adv-x="1380" 
d="M702 1599l-80 84l355 237l173 -173c-118 -83 -369 -140 -448 -148zM101 0v116l157 36v1245l-152 21v135h1093l30 -318h-164l-73 164l-449 17v-546l306 8l44 153h147v-463h-147l-44 156l-306 6v-593l506 25l116 201l160 -31l-51 -332h-1173z" />
    <glyph glyph-name="Ecircumflex" unicode="&#xca;" horiz-adv-x="1380" 
d="M460 1605l-96 62l265 253h214l264 -252l-101 -63l-269 146zM101 0v116l157 36v1245l-152 21v135h1093l30 -318h-164l-73 164l-449 17v-546l306 8l44 153h147v-463h-147l-44 156l-306 6v-593l506 25l116 201l160 -31l-51 -332h-1173z" />
    <glyph glyph-name="Edieresis" unicode="&#xcb;" horiz-adv-x="1380" 
d="M978 1633c-81 0 -157 48 -157 133c0 88 93 154 181 154c112 0 156 -58 156 -132c0 -95 -87 -155 -180 -155zM465 1632c-82 0 -155 48 -155 132c0 90 92 156 181 156c112 0 159 -59 159 -133c0 -94 -90 -155 -185 -155zM101 0v116l157 36v1245l-152 21v135h1093l30 -318
h-164l-73 164l-449 17v-546l306 8l44 153h147v-463h-147l-44 156l-306 6v-593l506 25l116 201l160 -31l-51 -332h-1173z" />
    <glyph glyph-name="Racute" unicode="&#x154;" horiz-adv-x="1479" 
d="M685 1599l-81 84l356 237l172 -173c-118 -83 -368 -140 -447 -148zM72 0v116l180 38v1233l-159 21v145h241c135 0 273 14 388 14c327 0 570 -103 570 -409c0 -225 -118 -382 -337 -457c182 -83 304 -499 421 -551l120 -34v-116h-364c-119 0 -258 667 -457 658l-138 -2
v-505l198 -35v-116h-663zM537 799c49 -8 141 -10 196 -5c144 8 277 84 277 333c0 163 -78 305 -327 301c-50 -1 -110 -1 -146 -14v-615z" />
    <glyph glyph-name="Rcaron" unicode="&#x158;" horiz-adv-x="1479" 
d="M611 1605l-262 252l101 63l266 -145l274 145l96 -61l-262 -254h-213zM72 0v116l180 38v1233l-159 21v145h241c135 0 273 14 388 14c327 0 570 -103 570 -409c0 -225 -118 -382 -337 -457c182 -83 304 -499 421 -551l120 -34v-116h-364c-119 0 -258 667 -457 658l-138 -2
v-505l198 -35v-116h-663zM537 799c49 -8 141 -10 196 -5c144 8 277 84 277 333c0 163 -78 305 -327 301c-50 -1 -110 -1 -146 -14v-615z" />
    <glyph glyph-name="Rcommaaccent" unicode="&#x156;" horiz-adv-x="1479" 
d="M72 0v116l180 38v1233l-159 21v145h241c135 0 273 14 388 14c327 0 570 -103 570 -409c0 -225 -118 -382 -337 -457c182 -83 304 -499 421 -551l120 -34v-116h-364c-119 0 -258 667 -457 658l-138 -2v-505l198 -35v-116h-663zM537 799c49 -8 141 -10 196 -5
c144 8 277 84 277 333c0 163 -78 305 -327 301c-50 -1 -110 -1 -146 -14v-615zM674 -178l128 138c139 -16 238 -128 238 -270c0 -176 -168 -306 -252 -330l-97 51v23c50 34 98 102 98 186c0 73 -61 135 -115 135v67z" />
    <glyph glyph-name="Ograve" unicode="&#xd2;" horiz-adv-x="1580" 
d="M395 1747l173 173l344 -237l-81 -84c-79 8 -318 65 -436 148zM75 753c11 507 352 809 736 814c427 5 703 -328 694 -778c-11 -506 -320 -814 -719 -817c-440 -4 -720 335 -711 781zM800 108c275 0 389 239 389 680c0 299 -121 640 -391 640c-277 0 -407 -244 -407 -674
c0 -284 130 -646 409 -646z" />
    <glyph glyph-name="Oacute" unicode="&#xd3;" horiz-adv-x="1580" 
d="M770 1599l-81 84l356 237l172 -173c-118 -83 -368 -140 -447 -148zM75 753c11 507 352 809 736 814c427 5 703 -328 694 -778c-11 -506 -320 -814 -719 -817c-440 -4 -720 335 -711 781zM800 108c275 0 389 239 389 680c0 299 -121 640 -391 640
c-277 0 -407 -244 -407 -674c0 -284 130 -646 409 -646z" />
    <glyph glyph-name="Ocircumflex" unicode="&#xd4;" horiz-adv-x="1580" 
d="M528 1605l-97 62l266 253h213l264 -252l-101 -63l-268 146zM75 753c11 507 352 809 736 814c427 5 703 -328 694 -778c-11 -506 -320 -814 -719 -817c-440 -4 -720 335 -711 781zM800 108c275 0 389 239 389 680c0 299 -121 640 -391 640c-277 0 -407 -244 -407 -674
c0 -284 130 -646 409 -646z" />
    <glyph glyph-name="Otilde" unicode="&#xd5;" horiz-adv-x="1580" 
d="M460 1653l-72 75c46 108 197 192 294 192c140 0 189 -111 279 -111c74 0 131 35 174 75l73 -87c-47 -107 -192 -182 -290 -182c-139 0 -192 115 -283 115c-64 0 -131 -38 -175 -77zM75 753c11 507 352 809 736 814c427 5 703 -328 694 -778c-11 -506 -320 -814 -719 -817
c-440 -4 -720 335 -711 781zM800 108c275 0 389 239 389 680c0 299 -121 640 -391 640c-277 0 -407 -244 -407 -674c0 -284 130 -646 409 -646z" />
    <glyph glyph-name="Odieresis" unicode="&#xd6;" horiz-adv-x="1580" 
d="M1045 1633c-81 0 -157 48 -157 133c0 88 94 154 182 154c112 0 156 -58 156 -132c0 -95 -88 -155 -181 -155zM533 1632c-83 0 -155 48 -155 132c0 90 91 156 180 156c112 0 160 -59 160 -133c0 -94 -91 -155 -185 -155zM75 753c11 507 352 809 736 814
c427 5 703 -328 694 -778c-11 -506 -320 -814 -719 -817c-440 -4 -720 335 -711 781zM800 108c275 0 389 239 389 680c0 299 -121 640 -391 640c-277 0 -407 -244 -407 -674c0 -284 130 -646 409 -646z" />
    <glyph glyph-name="Kcommaaccent" unicode="&#x136;" horiz-adv-x="1482" 
d="M72 0v116l180 37v1243l-180 22v135h637v-135l-172 -23v-619l508 621l-158 21c0 45 -1 90 -2 135h567v-135l-176 -23l-449 -504c162 -155 437 -702 531 -738l143 -37v-116h-374c-98 0 -301 587 -453 719l-137 -154v-412l194 -37v-116h-659zM643 -178l128 138
c139 -16 238 -128 238 -270c0 -176 -168 -306 -252 -330l-97 51v23c51 34 98 102 98 186c0 73 -61 135 -115 135v67z" />
    <glyph glyph-name="rcaron" unicode="&#x159;" horiz-adv-x="947" 
d="M364 1335l-272 378l112 62l272 -233l269 232l115 -61l-271 -378h-225zM104 0v114l140 24v725l-139 88v98l325 97l61 -19v-178c41 109 212 197 312 197c45 0 87 -3 103 -10v-268c-38 25 -108 42 -174 42c-111 0 -171 -31 -203 -52v-714l255 -30v-114h-680z" />
    <glyph glyph-name="rcommaaccent" unicode="&#x157;" horiz-adv-x="947" 
d="M104 0v114l140 24v725l-139 88v98l325 97l61 -19v-178c41 109 212 197 312 197c45 0 87 -3 103 -10v-268c-38 25 -108 42 -174 42c-111 0 -171 -31 -203 -52v-714l255 -30v-114h-680zM245 -178l128 138c139 -16 238 -128 238 -270c0 -176 -168 -306 -252 -330l-97 51v23
c51 34 98 102 98 186c0 73 -61 135 -115 135v67z" />
    <glyph glyph-name="scaron" unicode="&#x161;" horiz-adv-x="1062" 
d="M434 1335l-271 378l111 62l273 -233l269 232l114 -61l-271 -378h-225zM127 64v248h132l52 -115c49 -44 105 -93 201 -98c133 -6 215 50 214 153c-1 93 -131 142 -270 207c-175 82 -339 184 -336 380c3 224 260 307 444 312c144 4 289 -30 361 -62v-248h-136l-51 119
c-36 40 -87 75 -159 76c-97 0 -179 -37 -181 -125c-1 -102 103 -158 224 -216c172 -79 376 -155 376 -367c0 -247 -223 -352 -492 -352c-125 0 -274 28 -379 88z" />
    <glyph glyph-name="ij" unicode="&#x133;" horiz-adv-x="1389" 
d="M1042 1359c-88 0 -171 60 -171 160c0 108 106 190 203 190c119 0 172 -73 172 -161c0 -115 -101 -189 -204 -189zM348 1347c-88 0 -172 60 -172 159c0 109 107 191 204 191c119 0 171 -73 171 -161c0 -115 -101 -189 -203 -189zM693 -337c23 -7 92 -11 116 -11
c114 0 139 100 139 344v850l-123 116v75l339 109l66 -24v-1156c0 -312 -143 -496 -372 -496c-65 0 -154 18 -165 27v166zM93 0v114l150 26v706l-132 113v80l345 107l67 -23v-985l152 -24v-114h-582z" />
    <glyph glyph-name="jcircumflex" unicode="&#x135;" horiz-adv-x="669" 
d="M87 1368l-106 62l271 378h226l270 -377l-119 -62l-264 233zM228 -2v848l-123 116v75l339 109l66 -24v-1138c0 -312 -152 -499 -381 -499c-28 0 -145 6 -156 15v188c23 -7 101 -11 125 -11c106 0 130 86 130 321z" />
    <glyph glyph-name="Jcircumflex" unicode="&#x134;" horiz-adv-x="757" 
d="M121 1605l-96 62l265 253h214l264 -252l-101 -63l-269 146zM203 -52c42 117 49 252 49 456v994l-156 20v135h596v-135l-151 -21v-856c0 -216 -8 -429 -42 -543c-82 -249 -347 -375 -540 -391l-63 88c139 49 254 125 307 253z" />
    <glyph glyph-name="Eogonek" unicode="&#x118;" horiz-adv-x="1380" 
d="M101 0v116l157 36v1245l-152 21v135h1093l30 -318h-164l-73 164l-449 17v-546l306 8l44 153h147v-463h-147l-44 156l-306 6v-593l506 25l116 201l160 -31l-51 -332h-22c-137 -49 -273 -163 -283 -232c-18 -92 30 -107 91 -110c81 -4 174 40 229 62l29 -114
c-97 -71 -226 -130 -407 -125c-151 3 -204 93 -207 174c-3 107 141 268 338 345h-941z" />
    <glyph glyph-name="Scaron" unicode="&#x160;" horiz-adv-x="1273" 
d="M538 1605l-261 252l101 63l266 -145l273 145l97 -61l-262 -254h-214zM139 63v369h123l80 -223c75 -89 194 -104 304 -104c122 0 266 62 266 241c0 151 -179 242 -365 344c-200 110 -408 236 -407 468c0 278 272 409 513 409c209 0 392 -44 442 -74v-308h-130l-87 202
c-27 28 -123 55 -212 54c-108 0 -255 -46 -256 -203c0 -150 145 -244 310 -334c219 -120 474 -240 474 -493c-1 -274 -231 -437 -561 -437c-192 0 -412 43 -494 89z" />
    <glyph glyph-name="Ccedilla" unicode="&#xc7;" horiz-adv-x="1441" 
d="M73 724c1 517 406 843 848 843c199 0 331 -48 421 -67l-18 -346h-165l-64 188c-51 47 -112 70 -255 70c-249 0 -455 -219 -455 -609c0 -359 165 -689 476 -689c164 0 239 41 275 98l71 180h136v-327c-88 -4 -195 -76 -431 -90c-2 -33 -1 -73 2 -103
c176 -10 232 -119 232 -192c0 -132 -106 -202 -257 -209c-121 -6 -193 15 -235 26v128c32 -8 100 -14 120 -14c57 0 100 16 100 79c0 48 -38 76 -103 76c-16 0 -50 -3 -54 -4c1 55 17 151 36 213c-425 31 -680 341 -680 749z" />
    <glyph glyph-name="ccedilla" unicode="&#xe7;" horiz-adv-x="1095" 
d="M525 -19c-283 36 -436 258 -438 550c-2 379 258 607 588 619c126 4 277 -17 334 -51v-284h-144l-67 162c-40 27 -101 34 -146 34c-154 0 -272 -134 -277 -386c-8 -340 168 -479 342 -479c113 0 232 31 284 67l45 -110c-82 -70 -214 -115 -365 -125c-2 -33 -1 -76 2 -108
c176 -9 232 -118 232 -191c0 -132 -106 -202 -257 -209c-121 -6 -193 15 -235 26v128c32 -8 100 -15 121 -15c56 0 99 17 99 80c0 48 -37 76 -103 76c-15 0 -50 -3 -54 -4c1 57 18 157 39 220z" />
    <glyph glyph-name="nacute" unicode="&#x144;" horiz-adv-x="1436" 
d="M692 1338l-73 74l306 408l208 -175c-90 -139 -297 -255 -441 -307zM115 0v114l130 23v726l-139 88v98l325 97l62 -20v-145c99 91 266 163 412 165c252 3 330 -152 330 -459v-549l149 -24v-114h-579v114l146 26v506c0 227 -33 310 -216 306c-50 -2 -143 -26 -206 -71v-742
l134 -25v-114h-548z" />
    <glyph glyph-name="ntilde" unicode="&#xf1;" horiz-adv-x="1436" 
d="M415 1390l-72 87c47 107 197 194 295 194c139 0 188 -116 279 -116c73 0 131 44 174 82l73 -87c-47 -107 -193 -196 -291 -196c-139 0 -191 118 -282 118c-68 0 -131 -45 -176 -82zM115 0v114l130 23v726l-139 88v98l325 97l62 -20v-145c99 91 266 163 412 165
c252 3 330 -152 330 -459v-549l149 -24v-114h-579v114l146 26v506c0 227 -33 310 -216 306c-50 -2 -143 -26 -206 -71v-742l134 -25v-114h-548z" />
    <glyph glyph-name="igrave" unicode="&#xec;" horiz-adv-x="720" 
d="M497 1338c-139 20 -349 172 -441 308l207 175l306 -409zM93 0v114l150 26v706l-132 113v80l345 110l67 -23v-988l150 -24v-114h-580z" />
    <glyph glyph-name="itilde" unicode="&#x129;" horiz-adv-x="720" 
d="M31 1390l-72 87c46 107 197 194 294 194c140 0 189 -116 279 -116c74 0 131 44 174 82l73 -87c-47 -107 -192 -196 -290 -196c-139 0 -192 118 -283 118c-67 0 -131 -45 -175 -82zM93 0v114l150 26v706l-132 113v80l345 110l67 -23v-988l150 -24v-114h-580z" />
    <glyph glyph-name="idieresis" unicode="&#xef;" horiz-adv-x="720" 
d="M612 1363c-81 0 -156 47 -156 132c0 88 93 153 181 153c111 0 155 -57 155 -131c0 -95 -87 -154 -180 -154zM111 1363c-83 0 -154 46 -154 130c0 90 90 155 180 155c111 0 159 -58 159 -132c0 -94 -90 -153 -185 -153zM93 0v114l150 26v706l-132 113v80l345 110l67 -23
v-988l150 -24v-114h-580z" />
    <glyph glyph-name="iacute" unicode="&#xed;" horiz-adv-x="720" 
d="M307 1338l-73 74l306 408l208 -175c-90 -139 -297 -255 -441 -307zM93 0v114l150 26v706l-132 113v80l345 110l67 -23v-988l150 -24v-114h-580z" />
    <glyph glyph-name="icircumflex" unicode="&#xee;" horiz-adv-x="720" 
d="M98 1335l-107 62l272 378h225l270 -377l-119 -62l-264 232zM93 0v114l150 26v706l-132 113v80l345 110l67 -23v-988l150 -24v-114h-580z" />
    <glyph glyph-name="Aogonek" unicode="&#x104;" horiz-adv-x="1554" 
d="M4 0v116l137 36l505 1401h262l487 -1401l155 -37v-115h-216c-137 -49 -273 -163 -283 -232c-18 -92 30 -107 91 -110c81 -4 174 40 229 62l29 -114c-97 -71 -226 -130 -407 -125c-151 3 -204 93 -206 174c-3 107 140 268 338 345h-191v115l147 39l-69 225h-570l-71 -223
l157 -40v-116h-524zM492 535h471l-146 471l-83 286z" />
    </font>
</defs>
</svg>
